<?xml version="1.0" standalone="no"?>
<!DOCTYPE svg PUBLIC "-//W3C//DTD SVG 1.1//EN" "http://www.w3.org/Graphics/SVG/1.1/DTD/svg11.dtd">
<svg xmlns="http://www.w3.org/2000/svg">
<metadata>Copyright (C) 2025 by original authors @ fontello.com</metadata>
<defs>
<font id="tdri" horiz-adv-x="1024" >
<font-face font-family="tdri" font-weight="400" font-stretch="normal" units-per-em="1024" ascent="860" descent="-164" />
<missing-glyph horiz-adv-x="1024" />
<glyph glyph-name="achieve" unicode="&#xe800;" d="M512 698a350 350 0 1 1 0-700 350 350 0 0 1 0 700z m-418-350a414 414 0 1 0 832 0 414 414 0 0 0-828 0z m418 179a184 184 0 1 1 184-179 34 34 0 0 0 59 0 248 248 0 1 0-72 179 30 30 0 1 0-43-43 179 179 0 0 1-124 43z m-21-200a30 30 0 0 0 0 42l384 384a30 30 0 1 0 42-42l-384-384c-13-13-29-13-42 0z" horiz-adv-x="1024" />

<glyph glyph-name="ai-file" unicode="&#xe801;" d="M277 310c-21-22-25-43-25-64v-128c0-18 12-30 30-30s30 12 30 30v34h72v-34c0-18 13-30 30-30s30 12 30 30v128c0 21-13 51-26 64-42 38-106 38-141 0z m107-103h-72v34c0 9 4 22 12 22 17 17 39 17 56 0 8-9 12-17 12-22l-8-34 0 0z m128 128c-17 0-30-13-30-30v-196c0-17 13-30 30-30s30 13 30 30v196c0 22-13 30-30 30z m422 133c-4 4-4 8-8 12l-282 282c-4 4-8 8-12 8-5 0-9 5-13 5h-376c-85 0-158-73-158-158v-533c0-90 73-163 158-163h533c90 0 158 69 158 158v376c5 4 0 8 0 13z m-277 174l149-149h-98c-25 0-51 21-51 51 0 0 0 98 0 98z m205-563c0-43-38-81-81-81h-538c-43 0-81 38-81 81v538c0 43 38 81 81 81h333v-154c0-68 60-128 128-128h154v-337h4z" horiz-adv-x="1024" />

<glyph glyph-name="ap1" unicode="&#xe802;" d="M648 331v299c0 72-59 136-136 136a132 132 0 0 1-132-136v-299l-17-17a200 200 0 1 1 303-269c72 85 68 213-18 286z m-51-265a132 132 0 0 0-192 30 136 136 0 0 0 26 192l13 9v333c0 38 30 72 72 72s73-30 73-72v-333l13-9c8-8 21-17 25-30 47-59 34-149-25-192h-5z m-51 188v358c0 18-13 35-34 35s-34-13-34-35v-358a85 85 0 0 1-56-81c0-38 39-85 86-85s85 38 85 85-21 64-51 77l4 4z" horiz-adv-x="1024" />

<glyph glyph-name="ap2" unicode="&#xe803;" d="M798-28l-86 380c26 34 43 77 43 124v43c0 17-13 34-34 34h-9v94c0 64-51 119-119 119h-171a120 120 0 0 1-119-119v-94h-9c-17 0-34-13-34-34v-43c0-47 17-90 43-124l-85-380c0-16 8-34 25-38 17 0 34 9 39 26l34 145h384l34-145c0-17 21-30 38-26s30 22 26 38z m-422 675c0 29 25 51 51 51h170c30 0 51-26 51-51v-94h-277v94h5z m-43-163h149v-149h-8a136 136 0 0 0-137 137v8l-4 4z m0-315l30 136c29-17 68-29 106-29h86c38 0 72 12 106 29l30-136h-358z m358 307c0-77-64-136-136-136h-13v149h149v-13z" horiz-adv-x="1024" />

<glyph glyph-name="ap3" unicode="&#xe804;" d="M802 152v153c0 150-111 269-256 286v64h51c17 0 35 13 35 34s-13 35-35 35h-170c-17 0-35-13-35-35s13-34 35-34h51v-64c-145-17-256-136-256-286v-153c-26-17-43-47-43-81 0-51 43-94 94-94h469c52 0 94 43 94 94s-17 64-42 81h8z m-512 153c0 124 102 222 222 222s222-98 222-222v-136h-444v136z m457-264h-470c-17 0-34 13-34 34s13 34 34 34h470c17 0 34-13 34-34s-13-34-34-34z" horiz-adv-x="1024" />

<glyph glyph-name="ap4" unicode="&#xe805;" d="M811 468h-51v8c0 124-90 226-214 243v56c0 17-13 34-34 34s-34-13-34-34v-56c-124-17-214-119-214-243v-8h-51c-17 0-34-13-34-35s13-34 34-34h51v-392c0-64 52-120 120-120h256c64 0 120 51 120 120v392h51c17 0 34 13 34 34s-13 35-34 35z m-120-461c0-30-25-51-51-51h-256c-30 0-51 25-51 51v392h363v-392h-5z m0 461h-358v8c0 98 81 179 179 179s179-81 179-179v-8z m-273-240h77c17 0 34 13 34 35s-13 34-34 34h-77c-17 0-34-13-34-34s13-35 34-35z m0-128h77c17 0 34 13 34 35s-13 34-34 34h-77c-17 0-34-13-34-34s13-35 34-35z" horiz-adv-x="1024" />

<glyph glyph-name="ap5" unicode="&#xe806;" d="M922 625a230 230 0 0 1-52 124 192 192 0 0 1-123 51c-47 9-111 9-188 9h-90c-77 0-141 0-187-9-52-8-90-21-124-51s-47-73-51-124c-9-47-9-111-9-187v-175c0-77 0-141 9-188 8-51 21-90 51-124s72-47 124-51c46-8 110-8 187-8h90c77 0 141 0 188 8 51 8 89 21 123 51 30 30 47 73 52 124 8 47 8 111 8 188v175c0 76 0 140-8 187z m-60-362l-4-184c-5-43-18-68-34-85s-43-30-86-34l-183-4h-86l-183 4c-43 4-68 17-86 34s-29 42-34 85v538c5 43 18 68 34 85s43 30 86 34 102 0 183 0h269c43 0 68-17 86-34s29-42 34-85l4-184v-170z m-525 175c-94-94-94-252 0-346s252-94 346 0 93 252 0 346-252 94-346 0z m175-354c-98 0-179 80-179 179s81 179 179 179 179-81 179-179-81-179-179-179z m0 128c-30-5-51 25-51 51s-13 34-34 34-35-13-35-34c0-64 52-120 120-120s60 77 0 69z" horiz-adv-x="1024" />

<glyph glyph-name="ap6" unicode="&#xe807;" d="M849 203v9l51 192v25c0 320-362 311-362 311v-298h-244l-21 64c0 13-17 21-30 21h-98c-17 0-34-13-34-34s13-34 34-34h77l77-260a136 136 0 0 1 81-248c72 0 132 56 136 128h111c5-72 64-128 137-128s136 64 136 137-21 85-60 111h9v4z m-243 473c128-8 226-106 234-234h-234v234z m-222-661c-43 0-77 34-77 77s34 77 77 77 77-34 77-77-34-77-77-77z m256 128h-128c-21 51-68 85-128 85h-21l-43 154h512l-43-149h-21c-60 0-107-34-128-85v-5z m128-128c-43 0-77 34-77 77s34 77 77 77 77-34 77-77-34-77-77-77z" horiz-adv-x="1024" />

<glyph glyph-name="ap7" unicode="&#xe808;" d="M299 664h205l-30-77c0-4-5-9-13-9h-60c-13 0-17-8-17-8v-26l51-42 5-18-18-59v-21h22l55 34c5 0 9 8 17 0l52-34h21c8 4 8 12 8 21l-17 64 4 17 52 42s8 9 4 18-8 12-17 12h-60c-8 0-13 9-17 18l-30 68h205c17 0 34 12 34 34s-13 34-34 34h-422c-17 0-35 0-35-34s35-34 35-34z m640-94a120 120 0 0 1-120-120v-136h-614v136c0 64-51 128-120 120s-47-64 0-68 51-26 51-52v-448c0-17 13-34 35-34s34 13 34 34v52h619v-52c0-17 12-34 34-34s34 13 34 34v448c0 30 25 52 51 52s34 12 34 34c0 34-38 34-38 34z m-632-444h-107v128h107v-128z m171 0h-107v128h107v-128z m170 0h-106v128h106v-128z m171 0h-107v128h107v-128z" horiz-adv-x="1024" />

<glyph glyph-name="ap8" unicode="&#xe809;" d="M930 365a85 85 0 0 1-51 81l-4 34a205 205 0 0 1-227 145c-25 43-68 77-119 90a213 213 0 0 1-256-141 171 171 0 0 1-111-179c-38-9-68-43-68-85s26-73 64-86l26-115a205 205 0 0 1 196-162h256c98 0 183 73 200 166l30 163c34 12 64 46 64 89z m-623 149l17 5 4 13c9 80 64 119 141 119 56 0 107-30 128-81 5-13 22-22 39-17l38 4c64 0 120-47 132-107h-166c-51 0-154-30-154-30s-81-25-123-25h-137c-8 55 26 111 81 119z m-123-179h179c51 0 149 30 149 30 38 17 85 26 128 26h196c13 0 26-13 26-26s-13-25-26-25h-247l-56-13-51-22a299 299 0 0 0-119-25h-179c-13 0-26 12-26 25s13 26 26 26v4z m588-205a136 136 0 0 0-136-115h-256a141 141 0 0 0-137 111l-21 94h192l42 8 56 26c38 17 81 26 128 26h158l-26-150z m-593 474c21 0 43 17 43 43s-17 42-43 42a43 43 0 0 1 0-85z" horiz-adv-x="1024" />

<glyph glyph-name="ap9" unicode="&#xe80a;" d="M888 583c0 98-82 179-180 179s-124-34-153-86l-470-477c-13-13-13-35 0-47l64-64c13-13 35-13 43 0l384 362 26-21-295-444c-8-13-4-34 9-42l72-51c13-9 34-9 43 8l384 533v9c38 34 68 81 73 141z m-350-77l-269-256-26 26 277 285c0-17 9-38 18-55z m-367-350l-22 21 51 51 22-21-51-51z m226-192l-21 17 34 51 21-17-34-51z m72 102l-25 18 213 320 43-5h8l-243-337 4 4z m235 402c-64 0-120 51-120 119s52 119 120 119 120-51 120-119-52-119-120-119z" horiz-adv-x="1024" />

<glyph glyph-name="ap10" unicode="&#xe80b;" d="M512 305c-72 0-128-55-128-128s56-128 128-128 128 56 128 128-56 128-128 128z m0-192c-34 0-64 30-64 64s30 64 64 64 64-29 64-64-30-64-64-64z m-128 627h256c17 0 34 13 34 35s-13 34-34 34h-256c-17 0-34-13-34-34s13-35 34-35z m328-59h-384a171 171 0 0 1-170-171v-405a171 171 0 0 1 170-171h22v-13c0-17 13-34 34-34s34 13 34 34v13h235v-13c0-17 13-34 34-34s34 13 34 34v13a171 171 0 0 1 171 171v405a171 171 0 0 1-171 171h-9z m-384-64h384c60 0 107-47 107-107v-42h-597v42c0 60 47 107 106 107z m384-619h-384a107 107 0 0 0-106 107v299h597v-299c0-60-47-107-107-107z" horiz-adv-x="1024" />

<glyph glyph-name="ap11" unicode="&#xe80c;" d="M712 809h-413a200 200 0 0 1-205-205v-508c0-115 90-204 205-204h413c116 0 205 89 205 204v508c0 115-89 205-205 205z m-413-64h413c77 0 141-64 141-141v-235h-691v235c0 77 64 141 137 141z m413-789h-413a141 141 0 0 0-141 140v209h695v-209c0-76-64-140-141-140z" horiz-adv-x="1024" />

<glyph glyph-name="ap12" unicode="&#xe80d;" d="M666 340h-312c-17 0-34-13-34-35s13-34 34-34h312c17 0 34 13 34 34s-13 35-34 35z m0 115h-312c-17 0-34-13-34-35s13-34 34-34h312c17 0 34 13 34 34s-13 35-34 35z m187 72v9c0 12-8 25-21 30l-282 106a128 128 0 0 1-81 0l-281-106c-13-5-22-18-22-30v-9a145 145 0 0 1-115-145v-38c0-81 64-150 145-150 22-42 56-81 94-110h4c128-90 295-90 423 0h4c43 34 73 68 94 115 81 0 145 68 145 149v38c0 73-51 128-115 146l8-5z m-682-260a85 85 0 0 0-51 77v38a85 85 0 0 0 51 77v-196 4z m520-128h-4a294 294 0 0 0-350 0h-4a243 243 0 0 0-98 188v192l260 98h38l261-98v-192c0-73-39-141-98-184l-5-4z m213 205a85 85 0 0 0-51-77v196a85 85 0 0 0 51-77v-42z" horiz-adv-x="1024" />

<glyph glyph-name="ap13" unicode="&#xe80e;" d="M546 356v120c0 17-13 34-34 34s-34-13-34-34v-132c0-9 0-17 8-22l86-81c12-13 34-13 47 0s13 35 0 47l-77 73 4-5z m196 295l-21 77c-9 21-17 38-34 55-17 13-39 21-60 21h-226c-21 0-43-8-60-21-17-13-29-34-34-55a299 299 0 0 1-17-73 205 205 0 0 1-102-175v-252a213 213 0 0 1 102-179l17-68c9-21 17-38 34-55 17-13 39-22 60-22h226c21 0 43 9 60 22s30 34 34 55l17 68a200 200 0 0 1 98 175v252c0 72-38 136-98 175h4z m-379 55c4 18 8 22 17 26 4 4 12 8 30 8h213c17 0 25-4 30-8l17-26 8-25h-315l8 25h-8z m298-704c-4-17-8-21-17-25-4-5-12-9-30-9h-213c-17 0-25 4-30 9l-17 25-4 22h316l-5-22z m115 222c0-76-64-140-140-140h-252a141 141 0 0 0-141 140v252c0 77 64 141 141 141h252c76 0 140-64 140-141v-252z" horiz-adv-x="1024" />

<glyph glyph-name="ap14" unicode="&#xe80f;" d="M883 429l-243 179h-128c-17 0-34-12-34-34 0-17 13-34 34-34h107l119-90h-499c-103 0-188-85-188-187s85-188 188-188 171 68 183 153h64l111 64c0-157 86-221 188-221s188 85 188 187-90 171-90 171z m-644-281a124 124 0 0 0 0 247c68 0 102-39 119-90h-119c-17 0-34-13-34-34s13-34 34-34h119a120 120 0 0 0-119-89z m188 153c-5 34-22 64-43 90h243l-158-90h-42z m358-153c-68 0-124 55-124 123s22 77 51 98l26 17 47 9a124 124 0 0 0 0-247z" horiz-adv-x="1024" />

<glyph glyph-name="ap15" unicode="&#xe810;" d="M952 314l-227 226-106 107-22 8h-170c-17 0-35-13-35-34s13-34 35-34h157l43-43h-72c-17 0-35-12-35-34v-68l-46-34-64 81c-5 8-18 13-26 13h-107c-17 0-34-13-34-34s13-35 34-35h90l34-42h-273c-13 0-26-9-30-22l-42-145c0-8 8-12 8-12l162-103 17-4h469l18 4 213 149c38 26 9 56 9 56z m-235-145h-453l-76 43h367c8 0 13 0 21 8l85 64c13 8 17 30 5 43-9 13-30 17-43 4l-77-55h-414l17 64h320c9 0 13 0 22 8l85 64c8 4 13 17 13 26v51h102l197-197-171-123z" horiz-adv-x="1024" />

<glyph glyph-name="ap16" unicode="&#xe811;" d="M896 506a414 414 0 0 1-542 226c-128-51-213-162-243-286a422 422 0 0 1 401-512h4c52 0 103 9 154 30 213 90 311 333 226 542z m-384 192c158 0 290-102 337-243l-226-69c-13 34-39 60-68 69-60 21-128-9-150-69l-226 69a354 354 0 0 0 333 243z m-51-350c0 30 25 51 51 51s51-25 51-51-25-51-51-51-51 25-51 51z m-299 43l235-69c8-42 43-76 81-89v-239c-179 17-346 200-316 397z m388-397v243c39 13 69 47 77 90l235 68c26-363-312-401-312-401z" horiz-adv-x="1024" />

<glyph glyph-name="ap17" unicode="&#xe812;" d="M789 212c-59 0-106-35-128-86h-175l-158 201 86 333h102c17 0 34 12 34 34s-12 34-34 34h-128c-12 0-25-9-30-26l-123-486c-77 0-137-64-137-137s64-136 137-136 136 64 136 136-34 103-81 124l13 51 137-175c4-8 16-13 25-13h183c5-72 64-128 137-128s137 64 137 137-64 137-133 137z m-554-214c-43 0-77 34-77 77s34 77 77 77 77-34 77-77-35-77-77-77z m554 0c-42 0-77 34-77 77s35 77 77 77 77-34 77-77-34-77-77-77z" horiz-adv-x="1024" />

<glyph glyph-name="ap18" unicode="&#xe813;" d="M512 468a162 162 0 1 1 0-325 162 162 0 0 1 0 325z m0-256c-51 0-94 42-94 93s43 94 94 94 94-43 94-94-43-93-94-93z m401 247a192 192 0 0 1-85 153c-26 18-60 26-98 30h-457a192 192 0 0 1-153-85c-18-25-26-60-30-98v-286a192 192 0 0 1 85-153c25-18 60-26 98-30h457a192 192 0 0 1 153 85c17 25 26 60 30 98v286z m-60-282a128 128 0 0 0-128-128h-448a128 128 0 0 0-128 128v278a128 128 0 0 0 128 128h448a128 128 0 0 0 128-128v-278z m-448 504h214c17 0 34 13 34 34s-13 34-34 34h-214c-17 0-34-13-34-34s13-34 34-34z m363-213h-21c-17 0-35-13-35-35s13-34 35-34h21c17 0 34 13 34 34s-13 35-34 35z" horiz-adv-x="1024" />

<glyph glyph-name="ap19" unicode="&#xe814;" d="M764 450l-107 278a34 34 0 0 1-30 21h-115c-17 0-34-13-34-34s13-34 34-34h94l21-60-183-145-73 145c-4 13-17 17-30 17h-115c-17 0-34-13-34-34s13-34 34-34h98l68-141-25-21a188 188 0 0 1-124 47c-119 0-187-86-187-188s72-179 183-179 149 38 179 98 17 128-8 170l247 197 47-120c-60-29-102-93-102-166s55-192 204-179 192 102 175 217-106 167-217 145z m-525-302c-124 4-145 110-111 174s128 98 184 47l-94-72c-13-13-18-30 0-47 12-13 30-17 46-4l94 72c56-132-68-170-119-170z m431 98c-9 46 4 102 55 128l35-94c4-17 21-30 46-22 18 5 26 26 18 43l-39 94a120 120 0 0 0 137-115c4-111-64-132-124-132s-115 34-128 98z" horiz-adv-x="1024" />

<glyph glyph-name="ap20" unicode="&#xe815;" d="M964 493c-4 39-17 73-42 98s-60 39-98 43l-141 4h-124l102 120c13 12 9 34 0 46-13 13-34 9-47 0l-102-119-102 119c-13 13-30 18-47 0-13-12-17-29 0-46l102-120h-124l-141-4c-38-4-72-17-98-43s-38-59-42-98l-4-141v-175l4-141c4-38 17-72 42-98s60-38 98-42l141-4h346l141 4c38 4 72 17 98 42 26 26 38 60 42 98l5 141v175l-5 141h-4z m-759-533c-30 0-47 12-60 25-13 13-21 30-25 60l-5 137v170l5 137c0 30 12 47 25 59s30 22 60 26l136 4h307v-618h-307l-136 4v-4z m699 217l-4-136c0-30-12-47-25-60-13-13-30-21-60-25l-103-5v619l103-4c30 0 47-13 60-26 13-13 21-30 25-60l4-136v-167z" horiz-adv-x="1024" />

<glyph glyph-name="ap21" unicode="&#xe816;" d="M384 156h-115c-17 0-34-13-34-34v-111c0-4 0-9-9-9h-98l-8 9v393c0 8 0 16 8 25l120 201c25 42 68 68 119 68h294c47 0 94-26 120-68l43-69c8-17 29-21 42-13s22 30 13 43l-43 69a209 209 0 0 1-175 98h-294c-73 0-137-39-175-98l-120-201c-12-17-16-39-16-60v-392c0-43 34-77 76-77h98c43 0 77 34 77 77v77h85c18 0 35 16 35 38 0 38-43 34-43 34z m-128 72h124c17 0 34 13 34 35s-13 34-34 34h-124c-17 0-34-13-34-34s13-35 34-35z m171 231h-171c-17 0-34-13-34-34s13-34 34-34h171c17 0 34 13 34 34s-13 34-34 34z m512-149h-141l38 158v8c0 17-12 34-30 34h-196c-13 0-26-8-30-21l-94-312v-8c0-17 13-34 34-30h150v-167l13-25c13-13 34-9 47 4l243 312c4 4 8 21 0 29-13 18-34 18-34 18z m-214-252v106c0 18-13 35-34 35h-141l77 247h133l-39-158v-8c0-17 13-30 34-30h120l-145-188h-5v-4z" horiz-adv-x="1024" />

<glyph glyph-name="ap22" unicode="&#xe817;" d="M632 169c-18 4-35-5-39-21a205 205 0 0 0-111-133c-98-47-218 0-264 98s0 218 98 265c17 8 21 26 17 42-9 18-26 22-43 18a273 273 0 0 1-145-171c-38-141 47-282 188-320s281 47 320 188c4 17-5 34-21 34z m238-192l-115 290a34 34 0 0 1-30 21h-260l-30 269c43 13 73 55 73 103s-47 106-107 106-111-47-111-106 34-90 81-103l34-303c0-17 17-30 30-30h265l106-268c9-18 26-22 39-18 17 5 25 26 17 43l8-4z m-469 721c26 0 43-22 43-43s-22-43-43-43-47 22-47 43 22 43 47 43z m132-307h154c17 0 34 13 34 34s-13 34-34 34h-154c-17 0-34-13-34-34s13-34 34-34z" horiz-adv-x="1024" />

<glyph glyph-name="ap23" unicode="&#xe818;" d="M879 625c-9 51-21 90-51 124s-73 47-124 51c-47 9-111 9-188 9h-4c-77 0-141 0-188-9-51-8-89-21-124-51s-46-73-51-124c-8-47-8-111-8-187v-175c0-77 0-141 8-188 9-51 22-90 51-124s73-47 124-51c47-8 111-8 188-8h4c77 0 141 0 188 8 51 8 90 21 124 51 30 30 47 73 51 124 9 47 9 111 9 188v175c0 76 0 140-9 187z m-60-362l-4-184c-4-43-17-68-34-85-17-17-43-30-85-34l-184-4-184 4c-42 4-68 17-85 34-17 17-30 42-34 85l-4 184v170l4 184c4 43 17 68 34 85 17 17 43 30 85 34l184 4 184-4c42-4 68-17 85-34 17-17 30-42 34-85l4-184v-170z m-179-179h-256c-17 0-34-13-34-35s13-34 34-34h256c17 0 34 13 34 34s-13 35-34 35z" horiz-adv-x="1024" />

<glyph glyph-name="ap24" unicode="&#xe819;" d="M751 809h-474a222 222 0 0 1-221-222v-260c0-124 98-222 221-222h103l-60-149h-64c-17 0-34-13-34-35s13-34 34-34h512c17 0 34 13 34 34s-13 35-34 35h-64l-60 149h107c124 0 222 98 222 222v260c0 124-98 222-222 222z m-115-853h-248l60 149h124l60-149h4z m273 371c0-86-73-158-158-158h-474c-85 0-157 72-157 158v260c0 85 72 158 157 158h474c85 0 158-73 158-158v-260z" horiz-adv-x="1024" />

<glyph glyph-name="arr-down" unicode="&#xe81a;" d="M188 497c12 13 30 17 47 5l277-239 277 239c13 12 35 8 47-5 13-13 9-34-4-47l-299-256c-13-8-29-8-42 0l-299 256c-13 13-13 34-4 47z" horiz-adv-x="1024" />

<glyph glyph-name="arr-right" unicode="&#xe81b;" d="M597 58c-8 0-17 4-21 8-13 13-13 34 0 47l200 201h-605c-17 0-35 13-35 34s13 34 35 34h605l-200 201c-13 13-13 34 0 47s34 12 47 0l256-256c4-5 13-13 13-22s-9-17-13-21l-256-256c-9-13-17-17-26-17z" horiz-adv-x="1024" />

<glyph glyph-name="baby" unicode="&#xe81c;" d="M640 314c17 0 34 13 34 34s-13 34-34 34c-17 0-34-13-34-34s13-34 34-34z m-230-162c25-17 64-26 102-26s77 9 102 26c18 8 22 30 9 42-9 18-26 18-43 9a145 145 0 0 0-136 0c-17 9-34 0-43-13-9-17 0-34 13-42l-4 4z m8 196c0 17-13 34-34 34-17 0-34-13-34-34s13-34 34-34c17 0 34 13 34 34z m499 98c-13 60-42 115-81 166-12 13-30 18-47 0s-17-29-4-46c34-43 60-98 68-154 0-8 43-8 51-64 9-77-42-98-42-107a341 341 0 0 0-269-260c-192-43-380 85-422 273 0 9-9 17-17 22a38 38 0 0 0-26 25c-13 26 0 60 26 73 8 4 17 12 17 21 34 162 175 265 341 290s154-111 111-137-55-8-64 5-21 25-43 21-21-17-21-34c0-26 21-77 98-77s119 69 119 137-29 140-179 140-367-123-413-311a128 128 0 0 1-35-34c-34-55-21-128 35-162a418 418 0 0 1 806 0c13 8 47 38 47 98 0 85-56 115-56 115z" horiz-adv-x="1024" />

<glyph glyph-name="bachelor" unicode="&#xe81d;" d="M939 463l-406 213h-25l-406-213c-17 0-34-13-34-30s13-29 30-29l111-60v-188h-4c0-21 13-47 34-60 171-106 384-106 555 0 21 17 34 39 34 60v192l64 34v-269l12-13c18-8 39-4 48 13v320c4 13 0 22-13 30z m-175-311a448 448 0 0 0-244-68c-123 0-208 46-243 68v158l231-120h25l231 124v-162z m-244 102l-336 179 336 179 338-179-338-179z" horiz-adv-x="1024" />

<glyph glyph-name="barchart" unicode="&#xe81e;" d="M939-44h-854c-21 0-34-13-34-35s17-34 34-34h854c17 0 34 13 34 34s-17 35-34 35z m-734 59c43 0 72 5 94 26s21 47 21 94v256c0 47-4 72-26 93s-51 22-94 22-72 0-93-22-22-46-22-93v-256c0-47 5-77 26-99s47-21 94-21z m597 0c43 0 68 5 90 26s21 47 21 94v554c0 43 0 73-21 94s-52 21-94 21-73 0-94-21-21-47-21-94v-554c0-47 4-77 25-99s47-21 94-21z m-298 0c42 0 68 5 89 26s21 47 21 94v426c0 43 0 73-21 94s-51 21-94 21-72 0-94-21-21-47-21-94v-426c0-47 4-77 26-99s46-21 94-21z" horiz-adv-x="1024" />

<glyph glyph-name="book" unicode="&#xe81f;" d="M307 561c0 9 5 17 9 22 8 8 17 13 25 13h342c8 0 17-5 21-9s8-13 8-21-4-18-8-22-13-8-21-8h-342c-8 0-17 4-21 8-8 0-13 9-13 17z m34-119c-8 0-17-4-21-9-4-4-8-13-8-21s4-17 8-21 13-9 21-9h214c8 0 17 4 21 9 4 4 8 13 8 21s-4 17-8 21c-4 5-13 9-21 9h-214z m542 222c-4 38-17 72-43 98-25 26-59 38-98 42-38 5-85 5-140 5h-180c-59 0-106 0-140-5-39-4-73-16-98-42-26-30-35-60-39-98-4-39-4-86-4-141v-346c0-59 0-106 4-141 4-38 17-72 43-98 25-25 60-38 98-42 38-4 85-4 141-4h175c59 0 106 0 140 4 39 4 73 17 98 42 26 26 39 60 43 98 5 39 5 86 5 141v346c0 60 0 107-5 141z m-683-145c0 59 0 102 5 136 8 30 13 47 25 60 13 13 30 17 60 21 34 4 77 4 137 4h170c60 0 103 0 137-4 30-4 47-12 60-25 12-13 21-30 25-60 5-34 5-77 5-137v-307h-491c-34 0-60 0-81-4-17-4-34-13-52-21v337z m632-470c0-51-43-93-94-93h-439c-56 0-99 42-99 98 0 55 43 98 99 98h533v-103z" horiz-adv-x="1024" />

<glyph glyph-name="bookmark-rect" unicode="&#xe820;" d="M512-113c-209 0-316 0-388 73-73 72-73 175-73 388 0 209 0 316 73 388 72 73 179 73 388 73 209 0 316 0 388-73 73-72 73-179 73-388 0-209 0-316-73-388-72-73-179-73-388-73z m0 853c-192 0-290 0-341-51-51-51-51-149-51-341s0-290 51-341c51-51 149-51 341-51s290 0 341 51c51 51 51 149 51 341s0 290-51 341c-51 51-149 51-341 51z m149-528c-8 0-17 0-21 4-21 4-38 17-72 47-18 13-26 21-30 21-13 4-30 4-43 0-4-4-13-8-30-21-38-30-55-43-77-47-25-9-47-4-68 4s-38 26-47 47c-9 17-9 38-9 89v419h64v-419c0-29 0-55 5-59 4-9 8-13 17-17 8-4 13-4 21-4s26 16 51 34c22 17 30 25 43 30 30 12 64 12 94 0 13-5 25-13 43-30 25-18 42-34 51-34 8 0 13 0 21 4s13 8 17 17c5 4 5 30 5 59v419h64v-419c0-46 0-68-9-89s-26-39-47-47c-13-4-30-8-43-8z m64-154h-426c-17 0-35 13-35 34s13 34 35 34h426c17 0 35-13 35-34s-18-34-35-34z" horiz-adv-x="1024" />

<glyph glyph-name="calendar" unicode="&#xe821;" d="M883 642c-34 34-81 47-141 52v30c0 16-12 29-30 29s-29-13-29-29v-30h-337v30c0 16-13 29-30 29-22 0-22-17-22-29v-30c-76-9-119-22-153-52-56-55-56-136-56-294v-81c0-158 0-239 56-295 51-55 132-55 290-55h158c158 0 239 0 294 55 56 56 56 137 56 295v81c0 158 0 239-56 294z m-452-8h158c141 0 209 0 251-38 22-22 30-52 35-99h-730c4 47 13 81 34 99 43 38 111 38 252 38z m452-367c0-141 0-209-38-252-39-38-107-38-252-38h-158c-141 0-209 0-251 38-39 39-39 107-39 252v171h734v-90l4-81z m-567-77a43 43 0 0 1-30-13 43 43 0 0 1-13-29c0-13 4-22 13-30 8-9 17-13 30-13s21 4 30 13c8 8 12 17 12 30a43 43 0 0 1-12 29l-30 13z m0 158c-13 0-22-4-30-13s-13-17-13-30 4-21 13-29c8-9 17-13 30-13s21 4 30 13c8 8 12 16 12 29s-8 22-17 30l-25 13z m396 0c-12 0-21-4-29-13s-13-17-13-30 4-21 13-29c8-9 17-13 29-13 13 0 22 4 30 13s13 16 13 29-4 22-13 30l-30 13z m0-158a43 43 0 0 1-29-13 43 43 0 0 1-13-29c0-13 4-22 13-30 8-9 17-13 29-13 13 0 22 4 30 13 9 8 13 17 13 30a43 43 0 0 1-13 29l-30 13z m-200 0a43 43 0 0 1-30-13 43 43 0 0 1-13-29c0-13 5-22 13-30s17-13 30-13 21 4 30 13c8 8 13 17 13 30a43 43 0 0 1-13 29 43 43 0 0 1-30 13z m0 158c-13 0-21-4-30-13s-13-17-13-30 5-21 13-29 17-13 30-13 21 4 30 13 13 16 13 29-5 22-13 30-17 13-30 13z" horiz-adv-x="1024" />

<glyph glyph-name="candlechart" unicode="&#xe822;" d="M341 570c-47 0-77 0-98-22s-21-46-21-93v-107c0-47 4-77 26-98 16-17 34-22 59-22v-221c0-22 17-35 34-35s35 18 35 35v221c25 5 42 9 59 26 21 22 21 47 21 94v107c0 42 0 72-21 93s-47 22-94 22z m435 128c-21 21-51 21-93 21s-73 0-94-21-21-47-21-94v-260c0-43 0-73 21-94 17-17 34-22 59-22v-221c0-22 18-35 35-35s34 18 34 35v221c25 5 43 9 59 26 22 22 22 47 22 94v256c0 43 0 72-22 94z" horiz-adv-x="1024" />

<glyph glyph-name="care" unicode="&#xe823;" d="M533 702l-21 26-21-26m397-486c-69 42-124-9-158-43-34-34-47-38-73-47 0 22-9 38-17 51-13 22-34 35-47 43-81 38-171 30-247 8s-146-59-184-89c-13-13-13-30 0-43s30-17 47-4c30 26 85 56 158 77 68 17 145 21 205 0l30-26c4-8 8-17 0-43h-77c-17 0-34-8-39-25 0-17 9-34 26-39 34-8 68-8 98 0 150 39 188 103 201 116 13 8 34 21 51 0s8-26 8-30c0-9-25-81-158-145-68-34-179-43-332-13-47 8-128 8-196 8s-35-12-35-34 13-34 35-34c68 0 144 0 187-8 167-34 282-17 367 17s115 51 154 98c72 85 60 162 8 196l-12 9z m-222 584c-47 17-103 4-154-30-51 34-107 47-154 30-55-17-89-68-94-136 0 0 0-56 52-120 76-89 153-128 192-128s64 17 89 39c0 0 73 55 103 89 55 64 51 120 51 120 0 68-39 119-94 136h9z m-9-213l-89-77c-35-26-43-30-56-30s-26 4-60 30c-30 22-60 47-85 77s-34 55-39 77c0 42 22 68 48 76 29 9 68 0 110-34 0 0 9-8 22-8s21 8 21 8c43 39 81 43 111 34 26-8 47-34 47-76 0-22-13-52-30-77z" horiz-adv-x="1024" />

<glyph glyph-name="cart" unicode="&#xe824;" d="M508 510h-128c-17 0-34-13-34-34s12-34 34-34h132c17 0 34 13 34 34s-21 34-38 34z m316-222c25 17 34 43 51 81l17 43c38 90 60 141 30 184-30 42-82 42-180 42h-465c0 26-8 47-21 64-21 30-56 43-115 64l-13 4c-17 5-34-4-43-21-4-17 5-34 22-43l13-4c51-17 76-26 85-38 8-13 13-39 13-94v-115c0-128 0-197 46-243s120-48 244-48h345c17 0 35 13 35 35s-13 34-35 34h-345c-116 0-171 0-201 30-4 0-4 4-8 8h426c47 0 73 0 99 17z m-542 167v115 4h465c68 0 115 0 128-13 8-13-9-59-35-119l-16-43c-13-30-22-47-30-55-9-4-30-4-60-4h-452c0 29 0 68 0 115z m72-534c-51 0-98 43-98 99s43 98 98 98 98-43 98-98-42-99-98-99z m0 128c-17 0-34-13-34-34s13-34 34-34 34 13 34 34-17 34-34 34z m393-128c-51 0-99 43-99 99s43 98 99 98 98-43 98-98-47-99-98-99z m0 128c-17 0-35-13-35-34s13-34 35-34 34 13 34 34-17 34-34 34z" horiz-adv-x="1024" />

<glyph glyph-name="chart" unicode="&#xe825;" d="M512-113c-209 0-316 0-388 73-73 72-73 175-73 388 0 209 0 316 73 388 72 73 179 73 388 73 209 0 316 0 388-73 73-72 73-179 73-388 0-209 0-316-73-388-72-73-179-73-388-73z m0 853c-192 0-290 0-341-51-51-51-51-149-51-341s0-290 51-341c51-51 149-51 341-51s290 0 341 51c51 51 51 149 51 341s0 290-51 341c-51 51-149 51-341 51z m213-682c-17 0-34 13-34 34v384c0 17 13 34 34 34s35-13 35-34v-384c0-17-18-34-35-34z m-213 0c-17 0-34 13-34 34v256c0 17 13 34 34 34s34-13 34-34v-256c0-17-17-34-34-34z m-213 0c-17 0-35 13-35 34v128c0 17 13 34 35 34s34-13 34-34v-128c0-17-17-34-34-34z" horiz-adv-x="1024" />

<glyph glyph-name="check" unicode="&#xe826;" d="M405 135c-8 0-17 4-25 8l-145 145c-13 13-13 34 0 47s34 13 47 0l123-123 342 341c13 13 34 13 47 0s12-34 0-47l-367-363c-9-8-13-8-22-8z" horiz-adv-x="1024" />

<glyph glyph-name="check-cir" unicode="&#xe827;" d="M512-113c-252 0-461 209-461 461s209 461 461 461 461-209 461-461-209-461-461-461z m0 853c-218 0-392-174-392-392s174-392 392-392 392 174 392 392-174 392-392 392z m-64-533c-8 0-17 9-21 13l-86 85c-13 13-13 35 0 47s35 13 47 0l64-64 188 188c13 13 34 13 47 0 13-13 13-34 0-47l-213-213c-5-4-18-9-26-9z" horiz-adv-x="1024" />

<glyph glyph-name="check-cir-fill" unicode="&#xe828;" d="M512 775c-235 0-427-192-427-427s192-427 427-427 427 192 427 427-192 427-427 427z m175-346l-213-213c-9-4-18-4-26-4s-17 4-21 8l-86 85c-13 13-13 35 0 47 13 13 35 13 47 0l64-64 188 188c13 13 34 13 47 0 13-13 13-34 0-47z" horiz-adv-x="1024" />

<glyph glyph-name="check-rect" unicode="&#xe829;" d="M512-113c-209 0-316 0-388 73s-73 175-73 388c0 209 0 316 73 388 72 73 179 73 388 73s316 0 388-73 73-179 73-388 0-316-73-388c-72-73-179-73-388-73z m0 853c-192 0-290 0-341-51s-51-149-51-341 0-290 51-341 149-51 341-51 290 0 341 51 51 149 51 341 0 290-51 341-149 51-341 51z m-64-533c-8 0-17 9-21 13l-86 85c-13 13-13 35 0 47s35 13 47 0l64-64 188 188c13 13 34 13 47 0 13-13 13-34 0-47l-213-213c-9-9-18-9-26-9z" horiz-adv-x="1024" />

<glyph glyph-name="check-rect-fill" unicode="&#xe82a;" d="M875 711c-60 64-163 64-363 64s-303 0-363-64c-64-60-64-163-64-363s0-303 64-363c60-64 163-64 363-64s303 0 363 64c64 60 64 163 64 363s0 303-64 363z m-192-278l-214-213c-4-4-13-8-21-8s-17 4-21 8l-86 85c-8 9-17 26 0 43 17 13 35 8 43 0l64-64 192 192c4 4 26 17 43 0s4-38 0-43z" horiz-adv-x="1024" />

<glyph glyph-name="clock" unicode="&#xe82b;" d="M512-113c-252 0-461 209-461 461s209 461 461 461 461-209 461-461-209-461-461-461z m0 853c-218 0-392-174-392-392s174-392 392-392 392 174 392 392-174 392-392 392z m107-528c-9 0-17 4-22 8l-106 107c-5 4-9 13-9 21v171c0 17 13 34 34 34s34-13 34-34v-158l90-98c13-13 13-35 0-47-4-4-13-4-21-4z" horiz-adv-x="1024" />

<glyph glyph-name="close" unicode="&#xe82c;" d="M734 84l-222 217-218-217c-12-13-34-13-46 0s-13 34 0 46l217 218-217 218c-13 12-13 34 0 46s34 13 46 0l218-217 218 217c12 13 34 13 46 0s13-34 0-46l-217-218 217-218c13-12 18-38 5-46-26-18-43-5-47 0z" horiz-adv-x="1024" />

<glyph glyph-name="close-cir" unicode="&#xe82d;" d="M512-113c-252 0-461 209-461 461s209 461 461 461 461-209 461-461-209-461-461-461z m0 853c-218 0-392-174-392-392s174-392 392-392 392 174 392 392-174 392-392 392z m85-520l-85 85-85-85c-13-13-35-13-47 0s-9 30 4 43l85 85-85 85c-13 13-13 30 0 43s30 13 43 0l85-85 85 85c13 13 35 13 47 0s13-34 0-47l-85-85 85-86c13-12 17-38 0-46-21-18-42 4-47 8z" horiz-adv-x="1024" />

<glyph glyph-name="copy" unicode="&#xe82e;" d="M640-113h-128c-124 0-196 0-243 47-47 47-47 115-47 243v214c0 123 0 196 47 243 47 47 119 47 243 47h128c124 0 196 0 243-47 47-47 47-115 47-243v-214c0-123 0-196-47-243-47-47-119-47-243-47z m-128 725c-111 0-166 0-196-29-30-30-30-86-30-197v-213c0-111 0-166 30-196 30-30 85-30 196-30h128c111 0 166 0 196 30 30 30 30 85 30 196v213c0 111 0 167-30 197-30 29-85 29-196 29h-128z m-256-597c-43 0-81 17-115 47s-47 73-47 115v256c0 171 0 256 60 316 59 60 145 60 315 60h171c43 0 81-17 115-47s47-73 47-115h-64c0 25-8 51-30 68-17 17-42 30-68 30h-171c-153 0-226 0-269-43s-42-115-42-269v-256c0-25 8-51 30-68 17-17 42-30 68-30v-64z" horiz-adv-x="1024" />

<glyph glyph-name="database-down" unicode="&#xe82f;" d="M226 711c77 34 175 55 286 55 111 0 213-21 286-55 34-17 68-39 90-60a128 128 0 0 0 42-90v-213a34 34 0 0 0-68 0v102l-64-42a798 798 0 0 0-572 4c-26 8-47 26-64 38v-102c0-13 0-30 22-43 12-17 38-34 68-47 68-30 158-51 260-51a34 34 0 0 0 0-59c-111 0-213 16-286 51-26 8-47 25-64 38v-102c0-13 0-30 22-43 12-17 38-34 68-47 68-30 158-47 260-47a34 34 0 0 0 0-68c-111 0-213 21-286 55-34 17-68 39-90 60a128 128 0 0 0-42 90v426a128 128 0 0 0 42 86c22 25 56 47 90 64z m-64-150c0-13 0-29 22-42 12-17 38-35 68-47 68-30 158-52 260-52 102 0 192 22 256 52a213 213 0 0 1 72 42c18 18 26 34 26 47 0 13-8 30-26 43a171 171 0 0 1-68 47c-68 30-158 51-260 51-102 0-192-21-256-51a213 213 0 0 1-72-43c-18-17-22-34-22-47z m606-311c17 0 34-13 34-30v-179l73 72a30 30 0 1 0 42-42l-128-128c-13-13-29-13-42 0l-128 128a30 30 0 1 0 42 42l77-72v179c0 17 13 34 30 34z" horiz-adv-x="1024" />

<glyph glyph-name="delete" unicode="&#xe830;" d="M529-66h-34c-119 0-183 0-231 43-46 43-51 107-59 226l-17 294c0 17 12 35 30 35 17 0 34-13 34-30l21-295c9-111 13-158 39-183 25-26 80-26 183-26h34c107 0 158 0 183 26 26 25 30 76 39 183l21 295c0 17 17 30 34 30s30-18 30-35l-21-294c-9-119-13-183-60-226-43-43-107-43-226-43z m68 214c-21 0-34 16-29 34l21 213c0 17 17 30 34 30s30-17 30-34l-21-214c-5-21-18-29-35-29z m-170 0c-17 0-30 12-30 29l-21 214c0 17 12 34 29 34 17 4 35-13 35-30l21-213c0-18-13-34-34-34z m448 426h-726c-17 0-29 13-29 30s12 34 34 34h725c17 0 34-13 34-34s-21-30-38-30z m-243 86c-13 0-26 8-30 21-9 17-18 34-34 47-35 21-77 21-112 0-16-13-29-30-34-47-4-17-25-26-42-21-17 4-26 25-22 42 13 30 34 56 60 77 56 38 132 38 184 0 25-17 46-47 59-77 5-17-4-34-21-42h-8z" horiz-adv-x="1024" />

<glyph glyph-name="doc" unicode="&#xe831;" d="M555-113h-86c-170 0-256 0-315 60-60 60-60 145-60 316v170c0 171 0 256 60 316 59 60 145 60 315 60h86c170 0 256 0 315-60 60-60 60-145 60-316v-170c0-171 0-256-60-316-59-60-145-60-315-60z m-86 853c-153 0-226 0-269-42s-42-115-42-269v-171c0-153 0-226 42-268s116-43 269-43h86c153 0 226 0 269 43s42 115 42 268v171c0 154 0 226-42 269s-116 42-269 42h-86z m86-512h-214c-17 0-34 13-34 35s13 34 34 34h214c17 0 34-13 34-34s-17-35-34-35z m128 171h-342c-17 0-34 13-34 34s17 35 34 35h342c17 0 34-13 34-35s-17-34-34-34z" horiz-adv-x="1024" />

<glyph glyph-name="download" unicode="&#xe832;" d="M678 344c-12 12-34 12-46 0l-90-86v487c0 17-13 34-34 34s-39-13-39-34v-478l-89 85c-13 13-34 13-47 0-13-12-13-34 0-47l145-136 4-5 4-4 13-4 13 4 4 4 4 5 146 136c25 5 25 26 12 39z m124-427h-580c-94 0-166 73-166 167v285c0 94 76 167 166 167h162c17 0 34-13 34-34s-21-30-38-30h-158c-56 0-102-47-102-103v-285c0-56 46-103 102-103h584c56 0 103 47 103 103v285c0 56-47 103-103 103h-162c-17 0-34 12-34 34s13 34 34 34h162c94 0 167-77 167-166v-282c0-98-77-171-171-175z" horiz-adv-x="1024" />

<glyph glyph-name="earth" unicode="&#xe833;" d="M512-113c-252 0-461 209-461 461s209 461 461 461 461-209 461-461-209-461-461-461z m0 853c-218 0-392-174-392-392s174-392 392-392 392 174 392 392-174 392-392 392z m34-836c-17 34-38 116 0 188 51 94 205 98 209 98 115 0 133 64 145 107 0 8 4 13 4 17l60-22c0-4-4-8-4-12-13-52-43-150-209-154-34 0-128-13-154-64-29-51-8-111 0-128l-51-30z m-34 367c-98 0-171 77-179 179-5 77-64 154-98 184l42 47c43-34 111-124 120-222 4-60 43-124 115-124 8 0 17 0 26 9 8 8 4 25 0 34-9 21-5 47 4 64 30 51 68 77 98 94 17 12 47 17 68 51 30 47 30 77 26 94l60 21c12-42-13-115-34-149-26-47-77-64-90-73-30-17-56-30-68-60 0-4-5-12 0-21 4-13 4-25 4-38 0-21-9-43-26-60-12-17-42-30-68-30z" horiz-adv-x="1024" />

<glyph glyph-name="earth-fill" unicode="&#xe834;" d="M614 416c9 26 47 47 69 56 106 47 119 136 123 179 116-115 128-286 128-286s-34-119-94-149c-68-30-115-17-162-26-42-8-106-34-136-90-43-68-30-136-17-179h-13c-235 0-427 192-427 427 0 115 47 222 120 299 0 0 51-30 81-90 17-34 34-68 38-102 9-99 77-192 188-192 26 0 51 8 72 25 22 17 35 52 35 73s-9 38-5 55z m-375 260s107-76 128-217c4-85 60-154 145-154 34 0 60 22 64 56 4 21-13 51 0 72 17 39 56 64 81 77 124 56 115 154 107 184-68 51-158 81-252 81h-26c-94-5-179-43-247-99z m333-750c-13 30-30 94 0 153 42 81 183 81 183 81 43 0 77 9 103 22 51 30 68 76 76 106 0 0 0-132-119-243-124-107-239-119-243-119z" horiz-adv-x="1024" />

<glyph glyph-name="edit" unicode="&#xe835;" d="M512-113c-209 0-316 0-388 73-73 72-73 175-73 388 0 209 0 316 73 388 72 68 179 68 388 68 17 0 34-12 34-34s-17-30-34-30c-192 0-290 0-341-51-51-51-51-149-51-341 0-192 0-290 51-341 51-51 149-51 341-51 192 0 290 0 341 51 51 51 51 149 51 341 0 17 13 34 35 34s34-13 34-34c0-209 0-316-73-388-72-73-179-73-388-73z m64 469c-4 0-8 0-13 0-8 5-17 9-25 13-9 9-13 17-13 26-5 9 0 21 0 30 0 0 34 102 38 111 5 8 13 21 17 30 9 8 205 209 205 209 21 21 47 29 77 29 30 0 55-12 77-29 21-22 29-47 29-77 0-30-12-56-29-77 0 0-201-201-209-205-9-8-18-12-30-17-4-4-120-43-124-43z m26 103l17-17 29 8c13 5 22 9 26 9 4 4 13 9 17 13 5 4 9 8 21 17l128 128c-12 4-21 17-34 25s-21 26-25 34c0 0-141-140-145-144-4-5-9-13-13-18-4-4-4-12-9-25l-12-30z m226 265c4-9 8-26 21-39s30-21 39-21l8 4c8 8 13 17 13 30 0 13-5 21-13 30-8 8-17 12-30 12-13 0-21-4-30-12l-8-4z" horiz-adv-x="1024" />

<glyph glyph-name="field" unicode="&#xe836;" d="M273-79c-55 0-102 17-137 51-55 56-64 150-29 261 13 38 29 77 51 115-22 38-38 77-51 115-39 111-26 205 29 261l0 0 0 0c56 55 150 64 261 29 38-13 77-29 115-51 154 86 299 102 376 26 55-56 64-150 29-260-13-39-29-77-51-116 22-38 38-76 51-115 39-111 26-205-29-260-77-77-222-64-376 25-85-55-166-81-239-81z m-77 367c-12-25-25-51-34-76-30-90-26-163 13-201 51-51 158-43 277 17-47 34-94 72-140 115-43 51-82 98-116 145z m376-256c115-60 222-72 277-17 39 39 43 111 13 201-9 25-22 51-34 76-34-46-73-93-116-140-46-47-93-86-140-120z m-342 316c34-56 77-107 128-158s103-94 158-128c52 34 107 77 158 128s94 102 128 158c-34 56-77 107-128 158s-102 94-158 128c-51-34-106-77-158-128s-94-102-128-158z m43 367c-43 0-73-13-94-34l0 0c-38-39-43-111-13-201 5-21 18-47 30-72 34 47 73 94 116 140 46 48 93 86 140 116-25 12-51 25-76 34-35 13-73 17-103 17z m299-51c47-34 94-73 140-116 43-42 86-93 116-140 12 25 25 51 34 76 30 90 26 163-13 201-55 51-162 39-277-21z m-60-444c-34 0-68 13-90 38-25 22-38 56-38 90s13 68 38 90c47 46 133 46 184 0 26-26 38-56 38-90s-12-68-38-90c-26-25-60-38-94-38z m0 196c-17 0-34-8-51-21-13-13-21-30-21-51s8-34 21-52c25-25 72-25 98 0 13 13 21 30 21 52s-8 34-21 51-30 21-47 21z" horiz-adv-x="1024" />

<glyph glyph-name="file-star" unicode="&#xe837;" d="M550 753l18 39-18-39z m-439-806c30-34 73-47 124-51 51-9 503-9 554 0s90 21 124 51l0 0c34 30 47 73 51 124 9 47 9 328-12 367-5 8-9 17-13 25l0 0 0 0c-22 30-337 316-371 329l-18-39 18 39c-39 12-282 12-333 8-51-8-90-21-124-51l0 0c-30-34-43-73-51-124s-4-111-4-192c0 0 0-311 8-362 4-51 17-90 47-124m47 47c-17 17-30 42-34 85s-4 495 0 538 17 68 34 85l0 0c17 17 42 30 85 34s261 4 277 4v-93c0-107 0-163 43-205s98-43 205-43h132c9-21 9-277 0-320-4-43-17-68-34-85l0 0c-17-17-42-30-85-34-43-4-491-4-538 0-43 4-68 17-85 34m610 469c-98 0-136 0-158 21s-21 60-21 158v64c13-8 30-25 47-42l170-154c18-17 34-34 47-47h-85z m-333-256c-47 0-89 39-89 90 0 4-5 8-9 8-4 0-9-4-9-8 0-47-38-90-89-90-4 0-9-4-9-8s5-9 9-9c47 0 89-38 89-90 0-4 5-8 9-8 4 0 9 4 9 8 0 48 38 90 89 90 5 0 9 4 9 9s-4 8-9 8z" horiz-adv-x="1024" />

<glyph glyph-name="file-star-copy" unicode="&#xe838;" d="M768-62c21 22 34 52 38 82 30 8 56 16 77 38m-153-81c-18-17-34-26-73-30-38-4-409-4-448 0-34 4-55 13-73 30l0 0c-16 17-25 34-29 72-5 39-5 410 0 448 4 35 13 56 29 73l0 0c18 8 39 21 77 26 39 4 209 4 227 4v-81c0-90 0-141 34-175s85-34 174-34h112c4-18 4-226 0-261-5-38-18-59-30-72m153 85c26 26 39 60 43 102s4 274-9 308c-17 34-42 60-89 98 0 0-205 183-235 196-25 9-230 9-273 4s-77-17-102-42l0 0c-22-26-30-52-39-86-30-8-55-17-77-38l0 0c-25-26-38-60-42-102s-4-418 0-461 17-77 42-103l0 0c26-25 60-38 103-42s418-4 461 0 76 17 102 42m77 162c-9-8-17-12-34-21 0 34 4 235-13 269-4 8-9 13-13 21 0 0-277 261-311 273l0 0c-30 13-210 13-244 9 13 17 18 25 26 38l0 0c17 17 34 26 72 30 39 5 231 5 248-4 17-9 218-183 218-183 46-43 64-60 76-82 9-21 9-243 5-277-5-38-13-60-30-73m-133 274c0 0-179 0-196 17-17 17-17 175-17 175 13-9 205-184 213-192z m-315-201c-47 0-90 39-90 90 0 4-4 8-8 8s-9-4-9-8c0-47-38-90-90-90-4 0-8-4-8-9s4-8 8-8c48 0 90-38 90-90 0-4 4-8 9-8s8 4 8 8c0 47 39 90 90 90 4 0 8 4 8 8s-4 9-8 9z" horiz-adv-x="1024" />

<glyph glyph-name="folder" unicode="&#xe839;" d="M512 143c-17 0-34 13-34 34v51h-51c-17 0-35 13-35 35s13 34 35 34h51v51c0 17 13 34 34 34s34-13 34-34v-51h51c17 0 35-13 35-34s-13-35-35-35h-51v-51c0-17-17-34-34-34z m85-256h-170c-171 0-256 0-316 60-60 60-60 145-60 316v298c0 39 0 60 5 77 8 43 29 81 55 111 30 26 68 47 107 55 21 5 38 5 81 5h34c43-5 81-21 111-47 8-4 12-13 25-26l22-21c34-34 47-47 64-60 8-4 21-8 29-13 18-4 43-4 90-4h17c120 0 179 0 226-42l13-13c43-47 43-107 43-227v-93c0-171 0-256-60-316-60-60-145-60-316-60z m-294 853h-9c-34 0-55 0-68-4-21 0-47-12-68-34s-34-42-38-72v-367c0-154 0-227 42-269s115-43 269-43h171c153 0 226 0 268 43s43 115 43 269v93c0 103 0 158-25 184l-9 8c-26 26-81 26-183 26h-18c-51 0-76 0-106 9-17 4-30 8-43 17-25 12-43 34-81 68l-26 21c-8 13-17 17-21 22-21 17-47 29-77 29h-21z" horiz-adv-x="1024" />

<glyph glyph-name="folder-normal" unicode="&#xe83a;" d="M606 416c-17 0-34 13-34 34s12 34 34 34l170 0c18 0 35-12 35-34s-13-34-35-34l-170 0z m-9-529h-170c-171 0-256 0-316 60s-60 145-60 316v298c0 39 0 60 5 77 8 43 29 81 55 111 30 26 68 47 107 55 21 5 38 5 81 5h34c43-5 81-21 111-47 8-4 12-13 25-26l22-21c34-34 47-47 64-60 8-4 21-8 29-13 18-4 43-4 90-4h17c120 0 179 0 226-42l13-13c43-47 43-107 43-227v-93c0-171 0-256-60-316s-145-60-316-60z m-294 853h-9c-34 0-55 0-68-4-21 0-47-12-68-34s-34-42-38-72v-367c0-154 0-227 42-269s115-43 269-43h171c153 0 226 0 268 43s43 115 43 269v93c0 103 0 158-25 184l-9 8c-26 26-81 26-183 26h-18c-51 0-76 0-106 9-17 4-30 8-43 17-25 12-43 34-81 68l-26 21c-8 13-17 17-21 22-21 17-47 29-77 29 0 0-21 0-21 0z" horiz-adv-x="1024" />

<glyph glyph-name="folder-question" unicode="&#xe83b;" d="M597-113h-170c-171 0-256 0-316 60s-60 145-60 316v298c0 39 0 60 5 77 8 43 29 81 55 111 30 26 68 47 107 55 21 5 38 5 81 5h34c43-5 81-21 111-47 8-4 12-13 25-26l22-21c34-34 47-47 64-60 8-4 21-8 29-13 18-4 43-4 90-4h17c120 0 179 0 226-42l13-13c43-47 43-107 43-227v-93c0-171 0-256-60-316s-145-60-316-60z m-294 853h-9c-34 0-55 0-68-4-21 0-47-12-68-34s-34-42-38-72v-367c0-154 0-227 42-269s115-43 269-43h171c153 0 226 0 268 43s43 115 43 269v93c0 103 0 158-25 184l-9 8c-26 26-81 26-183 26h-18c-51 0-76 0-106 9-17 4-30 8-43 17-25 12-43 34-81 68l-26 21c-8 13-17 17-21 22-21 17-47 29-77 29h-21z m85-349c0 17 4 29 17 47s26 30 43 38 43 17 68 17c26 0 47-4 64-13s34-21 43-38 17-34 17-51c0-13-4-26-8-39s-13-21-22-25-21-22-42-39c-5-4-9-8-13-12s-5-9-9-13-4-9-4-9-4-8-4-17c-5-17-13-25-30-25-9 0-17 4-22 8s-8 13-8 26c0 12 4 25 8 38s9 21 18 26 16 17 29 25c13 9 17 17 22 21s8 9 13 18 4 12 4 17c0 13-4 25-13 34s-21 13-39 13c-16 0-29-5-38-13s-17-21-21-43c-5-17-17-30-34-30-9 0-17 4-26 9s-13 21-13 30z m120-273c-9 0-17 4-26 8s-13 17-13 26c0 8 5 21 13 25s17 13 26 13c8 0 21-4 25-13s13-17 13-25c0-13-4-22-13-26s-13-8-25-8z" horiz-adv-x="1024" />

<glyph glyph-name="grid" unicode="&#xe83c;" d="M747-92c-86 0-133 0-167 35-34 34-34 81-34 166s0 132 34 167c34 34 81 34 167 34s132 0 166-34c34-35 34-82 34-167s0-132-34-166c-34-35-81-35-166-35z m0 342c-77 0-107 0-124-17-17-17-17-47-17-124s0-107 17-124c17-17 47-17 124-17s106 0 123 17c18 17 18 47 18 124s0 107-18 124c-17 17-46 17-123 17z m-470-342c-85 0-132 0-166 35-34 34-34 81-34 166s0 132 34 167c34 34 81 34 166 34s133 0 167-34c34-35 34-82 34-167s0-132-34-166c-34-35-81-35-167-35z m0 342c-77 0-106 0-123-17-18-17-18-47-18-124s0-107 18-124c17-17 46-17 123-17s107 0 124 17c17 17 17 47 17 124s0 107-17 124c-17 17-47 17-124 17z m470 128c-86 0-133 0-167 34-34 34-34 81-34 166s0 133 34 167c34 34 81 34 167 34s132 0 166-34c34-34 34-81 34-167s0-132-34-166c-34-34-81-34-166-34z m0 341c-77 0-107 0-124-17-17-17-17-47-17-124s0-106 17-123c17-17 47-17 124-17s106 0 123 17c18 17 18 47 18 123s0 107-18 124c-17 17-46 17-123 17z m-470-341c-85 0-132 0-166 34s-34 85-34 171 0 132 34 166 81 34 166 34 133 0 167-34 34-81 34-166 0-133-34-167-81-38-167-38z m0 341c-77 0-106 0-123-17s-13-42-13-119 0-107 17-124 47-17 124-17 106 0 123 17 17 47 17 124 0 106-17 123-51 13-128 13z" horiz-adv-x="1024" />

<glyph glyph-name="id-card" unicode="&#xe83d;" d="M384 356c-64 0-120 52-120 120s56 120 120 120 120-52 120-120-56-120-120-120z m0 171c-30 0-51-21-51-51s25-51 51-51 51 25 51 51-21 51-51 51z m0-427c-171 0-205 39-205 120 0 68 85 120 205 120s205-52 205-120c0-77-34-120-205-120z m0 171c-85 0-136-34-136-51 0-34 0-51 136-51s136 21 136 51c0 21-51 51-136 51z m213-299h-170c-171 0-256 0-316 60-60 60-60 145-60 316s0 256 60 316c60 60 145 60 316 60h170c171 0 256 0 316-60 60-60 60-145 60-316s0-256-60-316c-60-60-145-60-316-60z m-170 683c-154 0-227 0-269-43s-43-115-43-268 0-226 43-269 115-43 269-43h170c154 0 227 0 269 43s43 115 43 269 0 226-43 268-115 43-269 43h-170z m384-341h-171c-17 0-34 13-34 34s13 34 34 34h171c17 0 34-13 34-34s-17-34-34-34z m0 128h-214c-17 0-34 13-34 34s13 34 34 34h214c17 0 34-13 34-34s-17-34-34-34z m0-256h-128c-17 0-35 13-35 34s13 34 35 34h128c17 0 34-13 34-34s-17-34-34-34z" horiz-adv-x="1024" />

<glyph glyph-name="id-connect" unicode="&#xe83e;" d="M392 506c35 0 60 26 60 60s-25 55-60 55-59-25-59-60 30-55 59-55z m120-120c0-34 0-59-120-59s-119 25-119 59 51 60 119 60c69 0 120-26 120-60z m43-200h-128c-124 0-197 0-243 47s-48 119-48 243 0 196 48 243 119 47 243 47h128c123 0 196 0 243-47s47-115 47-243c0-124 0-196-47-243s-120-47-243-47z m-128 516c-111 0-167-4-197-34-25-26-25-81-25-192s0-166 30-196c29-30 85-30 196-30h128c111 0 166 0 196 30s30 85 30 196 0 166-30 196-85 30-196 30h-132z m264-175h-94c-17 0-34 13-34 34s13 35 34 35h94c21 0 34-18 34-35s-13-34-34-34z m0-128h-94c-17 0-34 13-34 34s13 35 34 35h94c17 0 34-13 34-35s-13-34-34-34z m248-427h-342c-17 0-34 13-34 35s13 34 34 34h342c17 0 34-13 34-34s-17-35-34-35z m-512 0h-342c-17 0-34 13-34 35s13 34 34 34h342c17 0 34-13 34-34s-17-35-34-35z m85 86c-17 0-34 13-34 34v128c0 17 13 21 34 21s34 0 34-21v-128c0-17-17-34-34-34z m0-171c-64 0-120 51-120 120s52 119 120 119 120-51 120-119-56-120-120-120z m0 171c-30 0-51-26-51-51s25-51 51-51 51 25 51 51-21 51-51 51z" horiz-adv-x="1024" />

<glyph glyph-name="info" unicode="&#xe83f;" d="M512-113c-252 0-461 209-461 461s209 461 461 461 461-209 461-461-209-461-461-461z m0 853c-218 0-392-174-392-392s174-392 392-392 392 174 392 392-174 392-392 392z m0-640c-17 0-34 13-34 35v256c0 17 13 34 34 34s34-13 34-34v-256c0-17-17-35-34-35z m0 461c26 0 43-17 43-42s-17-43-43-43-43 17-43 43 17 42 43 42z" horiz-adv-x="1024" />

<glyph glyph-name="invis" unicode="&#xe840;" d="M115 574c-4 9-8 13-17 17s-17 5-26 0-12-8-16-17-5-17 0-26l59 26z m837 17c-22 9-39-8-43-17 0 0-60-106-120-166-38-34-81-68-136-86-43-17-90-25-141-25-115 0-235 64-303 136-25 30-73 99-94 141 0 0-51-21-59-26 0 0 29-72 106-157 0 0 4-5 9-5l-43-42c-8-9-13-26 0-43 13-13 34-9 43 0l42 43c30-22 60-47 99-64l-39-64c-4-9-13-30 9-47 21-17 42 0 46 8l43 77c34-13 69-17 111-21v-77c0-13 9-30 30-30 26 0 34 17 34 30v77c38 4 73 8 107 21l47-72c4-9 25-22 47-9 17 13 17 30 8 43l-43 64c35 17 69 38 94 64l43-43c9-9 30-21 47-4 17 17 13 38 0 51l-43 43c51 59 111 157 111 157 9 9 9 35-12 43z" horiz-adv-x="1024" />

<glyph glyph-name="job" unicode="&#xe841;" d="M934 446c-4 47-21 86-51 115-30 30-68 43-115 47l-72 4-5 13-25 73c-9 21-22 38-39 51-17 13-38 17-59 21l-69 5h-13l-72-5c-22-4-43-8-60-21-17-13-30-25-38-47l-26-72-4-13v-5l-30-4c-47-4-85-17-115-47-30-29-43-68-51-115l-5-175v-4l5-175c4-47 21-85 51-115 30-30 68-43 115-51l175-5h162l175 5c47 4 85 21 115 51 30 30 43 68 51 115l5 175v4l-5 175z m-563 230c5 18 13 22 17 26 4 4 13 9 30 9h145c17 0 21-5 30-9l17-26 22-59h-286l25 59z m504-580a128 128 0 0 0-35-81c-16-17-38-25-80-34l-171-4h-158l-171 4a128 128 0 0 0-81 34c-17 17-25 39-34 81l-4 171 4 171c13 42 21 64 39 81 16 17 38 25 80 34l171 4h158l171-4a128 128 0 0 0 81-34c17-17 25-39 34-81l4-171-8-171z" horiz-adv-x="1024" />

<glyph glyph-name="job-time" unicode="&#xe842;" d="M930 502c-8 25-26 38-38 55l-4 4a213 213 0 0 1-116 47l-68 4-4 13-26 73c-8 21-21 38-34 51a171 171 0 0 1-60 21l-76 5h-18c-25 4-51 4-68 0-26 0-42-9-60-22-21-13-30-29-42-51l-26-77v-13l-34-4c-47-4-85-17-115-47-26-29-39-68-47-115-9-42-9-102-9-175v-4c0-73 0-132 9-175 4-47 21-85 47-115 30-26 68-39 115-47l175-4h43c21 0 30 12 30 30s-18 29-30 29h-39l-171 5c-38 4-64 17-80 30s-30 38-30 80l-5 171 5 171c4 38 17 64 30 81s38 25 80 30l158 4h158l171-4c38-5 64-17 81-30 26-26 30-26 30-39 8-12 8-29 8-80v-30c0-22 13-30 30-30s30 17 30 30v30c9 42 9 76 0 98z m-499 115h-81l21 64c9 17 13 21 21 25 5 5 13 9 30 9h150l30-9 21-25 21-64h-213z m371-478l-64 34v55c0 22-17 30-30 30-21 0-30-12-30-25v-77c0-8 9-21 18-26l80-46c13-9 30-5 39 12 9 13 4 34-13 43z m-94 243c-128 0-230-102-230-230s102-231 230-231 231 103 231 231-103 230-231 230z m0-401c-94 0-170 77-170 171s81 170 170 170 167-76 167-166c0-94-73-175-167-175z" horiz-adv-x="1024" />

<glyph glyph-name="letter" unicode="&#xe843;" d="M597-28h-170c-171 0-256 0-316 60-60 60-60 145-60 316s0 256 60 316c60 60 145 60 316 60h170c171 0 256 0 316-60 60-60 60-145 60-316s0-256-60-316c-60-60-145-60-316-60z m-170 683c-154 0-227 0-269-43s-43-115-43-268 0-226 43-269 115-43 269-43h170c154 0 227 0 269 43s43 115 43 269 0 226-43 268-115 43-269 43h-170z m85-341c-60 0-102 38-184 106l-93 73c-13 13-13 34-5 47 13 13 30 17 47 4l94-76c73-60 107-90 145-90 34 0 68 26 145 90l94 76c13 13 34 9 47-4 13-13 9-34-4-47l-94-77c-90-68-132-102-192-102z" horiz-adv-x="1024" />

<glyph glyph-name="lightbulb" unicode="&#xe844;" d="M512-108c-43 0-98 0-124 46-12 22-12 47-12 90v51c0 21-5 26-22 47-4 4-132 107-162 188-21 42-34 90-30 141 0 59 13 115 43 166s68 94 119 128c52 30 107 51 167 55 59 5 119-4 170-29s103-60 137-107 60-102 68-158c9-60 4-115-17-170-25-69-77-141-175-214-21-17-21-26-21-47v-51c0-43 0-68-13-90-21-38-85-46-128-46z m0 848h-21c-47-4-94-21-137-46-38-22-72-60-94-103s-34-89-34-136c0-43 9-81 26-120 17-38 38-68 72-98l4-4c52-47 69-64 77-73 26-30 35-38 35-76v-60c0-30 0-52 4-60 4-8 8-8 12-13 9-4 30-4 60-4s52 0 60 4c4 5 8 5 13 13 4 8 4 30 4 60v60c0 29 9 46 34 76 9 9 26 26 81 77 34 30 64 73 81 119s22 94 13 141-26 94-55 133c-30 38-107 110-235 110z m-107-682h214v-64h-214z m107 42c-17 0-34 13-34 35v59c-38 18-60 39-68 56s-5 34 8 42c13 9 30 5 43-4 8-4 25-34 51-34s43 17 51 30c13 17 34 21 47 8 13-8 17-25 9-38-9-17-35-42-69-55v-64c0-17-17-35-38-35z" horiz-adv-x="1024" />

<glyph glyph-name="like" unicode="&#xe845;" d="M149 446l9-21 42-478a51 51 0 1 0-106-4v482a30 30 0 0 0 55 21z m115-461a102 102 0 0 1 103-98h196c167 0 307 115 333 273l30 171a102 102 0 0 1-102 128h-222l25 171a256 256 0 0 1 0 98 102 102 0 0 1-72 72c-22 9-43 9-69 0a85 85 0 0 1-42-60l-22-76-25-64c-13-30-39-52-69-77l-64-47a102 102 0 0 1-34-85l34-401z m43 435a43 43 0 0 1-13-29l34-401a43 43 0 0 1 39-39h196c137 0 248 94 269 222l30 171a43 43 0 0 1-22 42 43 43 0 0 1-16 5h-218c-9 0-17 0-30 8a68 68 0 0 0-43 73l35 170a171 171 0 0 1-5 73l-8 13a38 38 0 0 1-17 12h-26l-13-12-21-81c-4-26-17-51-30-77a333 333 0 0 0-81-94l-64-56z" horiz-adv-x="1024" />

<glyph glyph-name="linechart" unicode="&#xe846;" d="M939-113h-427c-209 0-316 0-388 73-73 72-73 175-73 388v427c0 17 13 34 34 34s35-17 35-34v-427c0-192 0-290 51-341 51-51 149-51 341-51h427c17 0 34-13 34-35s-17-34-34-34z m-683 299c-8 0-13 4-21 8-13 13-17 30-5 47l133 167c21 30 34 42 51 51 13 9 30 13 42 13 13 0 30-4 43-9 17-8 30-25 56-51 17-17 29-34 34-34 4-4 8-4 13-4 4 0 8 0 12 4 5 4 18 17 34 38l133 167c13 13 30 17 47 4 12-13 17-30 4-47l-132-166c-22-30-34-43-52-52-12-8-29-12-42-12-13 0-30 4-43 8-17 9-30 22-55 51-17 17-30 35-34 35-5 0-9 4-13 4-5 0-9 0-13-4l-34-35-132-166c-9-13-18-17-26-17z" horiz-adv-x="1024" />

<glyph glyph-name="link" unicode="&#xe847;" d="M683 58h-43c-17 0-34 13-34 34s13 34 34 34h43c59 0 115 22 157 64s64 98 64 158-21 115-64 158-98 64-157 64h-43c-17 0-34 13-34 34s13 34 34 34h43c77 0 149-30 205-85 55-56 85-128 85-205 0-77-30-149-85-205-56-51-128-85-205-85z m-299 0h-43c-77 0-149 30-205 85-55 56-85 128-85 205 0 77 30 149 85 205 56 55 128 85 205 85h43c17 0 34-13 34-34s-17-34-34-34h-43c-59 0-115-22-157-64s-64-98-64-158c0-60 25-115 64-158 42-42 98-64 157-64h43c17 0 34-13 34-34s-17-34-34-34z m256 256h-256c-17 0-34 13-34 34s13 34 34 34h256c17 0 34-13 34-34s-17-34-34-34z" horiz-adv-x="1024" />

<glyph glyph-name="list" unicode="&#xe848;" d="M277-92c-85 0-132 0-166 35s-34 81-34 166 0 132 34 167 81 34 166 34 133 0 167-34 34-82 34-167 0-132-34-166-81-35-167-35z m0 342c-72 0-106 0-123-17s-18-47-18-124 0-107 18-124 46-17 123-17 107 0 124 17 17 47 17 124 0 107-17 124-51 17-124 17z m0 128c-85 0-132 0-166 34s-34 85-34 171 0 132 34 166 81 34 166 34 133 0 167-34 34-81 34-166 0-133-34-167-81-38-167-38z m0 341c-72 0-106 0-123-17s-13-47-13-119 0-107 17-124 47-17 124-17 106 0 123 17 17 47 17 124 0 106-17 123-55 13-128 13z m640-171h-341c-17 0-34 13-34 35s13 34 34 34h341c17 0 35-13 35-34s-18-35-35-35z m0-448h-341c-17 0-34 13-34 35s13 34 34 34h341c17 0 35-13 35-34s-18-35-35-35z" horiz-adv-x="1024" />

<glyph glyph-name="locate" unicode="&#xe849;" d="M550-40c-4 0-4 0 0 0-38 0-68 25-81 60l-64 213c0 4-8 13-13 13l-213 64c-34 8-59 42-59 76 0 39 21 77 59 90l559 213c34 13 68 9 94-17s30-60 17-94l-213-558c-13-35-47-60-86-60z m214 674l-559-214c-13-4-17-16-17-25 0-9 4-17 12-17 56-17 214-64 214-64 26-9 47-30 55-56 0 0 47-162 64-213 5-9 9-13 17-13 13 0 22 4 26 17 51 141 213 559 213 559 5 13 0 22-4 26-4 4-17 0-21 0z" horiz-adv-x="1024" />

<glyph glyph-name="lock" unicode="&#xe84a;" d="M683-113h-342c-123 0-196 0-243 47-47 47-47 115-47 243s0 197 47 243c47 48 120 48 243 48h342c123 0 196 0 243-48 47-46 47-115 47-243s0-196-47-243c-47-47-120-47-243-47z m-342 512c-111 0-166 0-196-30-30-29-30-85-30-196s0-166 30-196c30-30 85-30 196-30h342c111 0 166 0 196 30 30 30 30 85 30 196s0 167-30 196c-30 30-85 30-196 30h-342z m427 0c-17 0-34 13-34 34v86c0 59-22 115-64 157s-98 64-158 64c-60 0-115-21-158-64s-64-98-64-157v-86c0-17-13-34-34-34s-34 17-34 34v86c0 77 30 149 85 205 56 55 128 85 205 85 77 0 149-30 205-85 55-56 85-128 85-205v-86c0-17-17-34-34-34z m-85-264c-26 0-43 17-43 42s17 43 43 43 42-17 42-43-17-42-42-42z m-171 0c-26 0-43 17-43 42s17 43 43 43 43-17 43-43-17-42-43-42z m-171 0c-25 0-42 17-42 42s17 43 42 43 43-17 43-43-17-42-43-42z" horiz-adv-x="1024" />

<glyph glyph-name="logout" unicode="&#xe84b;" d="M230 502l-136-146-4-4-5-4-4-13 4-13 5-4 4-4 136-145c13-13 34-13 47 0 13 13 13 34 0 47l-85 89h478c21 0 34 17 34 39s-17 34-34 34h-486l85 90c13 12 13 34 0 46-13 13-34 13-39-12z m713 132v-580c0-94-73-167-167-167h-285c-94 0-167 77-167 167v166c0 17 13 34 34 34 22 0 30-21 30-38v-158c0-56 47-102 103-102h285c56 0 103 46 103 102v580c0 56-47 102-103 102h-285c-56 0-103-46-103-102v-162c0-17-12-34-34-34s-34 17-34 38l0 162c0 94 77 167 166 167h282c98-5 171-77 175-175z" horiz-adv-x="1024" />

<glyph glyph-name="marked" unicode="&#xe84c;" d="M286-70h-9c-21 4-42 13-59 30-34 34-34 85-34 204v171c0 154 0 231 51 286 51 55 128 55 277 55h85c17 0 35-12 35-34s-18-30-35-30h-85c-132 0-196 0-230-34-34-34-34-106-34-243v-171c0-85 0-144 12-157 9-5 13-9 26-13 17-4 64 38 124 94 38 34 55 51 85 60 13 4 30 4 43 0 30-5 46-26 85-56 60-51 102-94 124-94 8 0 17 4 25 13 13 13 13 73 13 158v94c0 17 13 34 34 34s34-13 34-34v-99c0-119 0-170-34-204-17-17-38-26-59-30-48-4-86 30-171 106-30 26-43 39-56 43h-17c-12-4-25-17-55-43-94-68-133-106-175-106z m653 554h-256c-17 0-35 13-35 35s13 34 35 34h256c17 0 34-13 34-34s-17-35-34-35z m-128-128c-17 0-35 13-35 35v256c0 17 13 34 35 34s34-13 34-34v-256c-5-17-17-35-34-35z" horiz-adv-x="1024" />

<glyph glyph-name="mobile" unicode="&#xe84d;" d="M956 463l-120 201a209 209 0 0 1-175 98h-294c-73 0-137-38-175-98l-120-201c-12-17-16-38-16-59v-393c0-43 34-77 76-77h98c43 0 77 34 77 77v77h423v-77c0-43 34-77 76-77h98c43 0 77 34 77 77v350c0 77-25 102-25 102z m-52-452l-8-9h-98a8 8 0 0 0-9 9v111c0 17-13 34-34 34h-486c-17 0-34-13-34-34v-111c0-4 0-9-9-9h-98l-8 9v393c0 8 0 16 8 25l120 201c25 42 68 68 119 68h294c47 0 94-26 120-68l119-201 9-25-5-393z m-524 286h-124c-17 0-34-13-34-34s13-35 34-35h124c17 0 34 13 34 35s-13 34-34 34z m388 162h-512c-17 0-34-13-34-34s13-34 34-34h512c17 0 34 13 34 34s-13 34-34 34z m-4-162h-124c-17 0-34-13-34-34s13-35 34-35h124c17 0 34 13 34 35s-13 34-34 34z" horiz-adv-x="1024" />

<glyph glyph-name="money" unicode="&#xe84e;" d="M508 775a427 427 0 0 1-384-619l4-26-26-89v-43l22-38c8-9 21-17 38-22h43l89 30 26-4a427 427 0 0 1 619 384 427 427 0 0 1-431 427z m0-794c-56 0-111 13-162 39-22 8-43 12-69 8l-89-26h-13l-9 5-4 8v13l26 90c4 21 4 46-9 68a367 367 0 1 0 329-205z m0 469c34 0 51-21 51-38s13-30 30-30 30 13 30 30c0 47-35 81-81 94 0 17-13 30-30 30s-30-13-30-30c-43-13-81-47-81-94 0-60 55-94 111-94 34 0 51-21 51-38s-17-39-51-39-52 22-52 39-12 30-29 30-30-13-30-30c0-47 34-81 81-94 0-17 13-30 30-30s30 13 30 30c42 13 81 47 81 94 0 60-56 94-111 94-34 0-52 21-52 38 5 17 18 38 52 38z" horiz-adv-x="1024" />

<glyph glyph-name="move" unicode="&#xe84f;" d="M888 361s-5 0 0 0c-5 0-5 0 0 0-5 0-5 0 0 0-5 0-5 0 0 0-5 0-5 0 0 0-5 0-5 0 0 0-5 0-5 0 0 0-5 0-5 0 0 0-5 0-5 0 0 0-5 0-5 0 0 0-5 0-5 0 0 0-5 0-5 0 0 0-5 0-5 0 0 0-5 0-5 0 0 0l-5 8-89 90c-13 13-34 13-47 0s-13-34 0-47l34-34h-235v239l34-34c13-13 34-13 47 0s13 34 0 47l-89 89-9 9a26 26 0 0 1-25 0l-9-9-98-94c-13-13-13-34 0-47s34-12 47 0l34 34v-234h-235l34 34c13 13 13 34 0 47s-34 13-47 0l-89-90-5-4v-4l-4-13 4-13 9-8 90-90c13-13 34-13 47 0s12 34 0 47l-34 34h234v-234l-34 34c-13 12-34 12-47 0s-13-34 0-47l90-90 8-9 13-4 13 4 8 9 90 90c13 13 13 34 0 47s-34 12-47 0l-34-34v234h234l-34-34c-12-13-12-34 0-47 13-13 34-13 47 0l90 90 4 4 5 13v17z" horiz-adv-x="1024" />

<glyph glyph-name="next" unicode="&#xe850;" d="M363 672c13 13 34 9 47-4l256-299c8-13 8-29 0-42l-256-299c-13-13-30-17-47-4-13 12-17 30-5 47l239 277-239 277c-8 13-8 35 5 47z" horiz-adv-x="1024" />

<glyph glyph-name="next-end" unicode="&#xe851;" d="M277 71c-13 13-13 34 0 47l235 234-235 231c-13 13-13 34 0 47 13 12 35 12 47 0l256-256c13-13 13-34 0-47l-256-256c-17-13-34-13-47 0z m406-13c-17 0-35 13-35 34v512c0 17 13 34 35 34s34-13 34-34v-512c0-17-17-34-34-34z" horiz-adv-x="1024" />

<glyph glyph-name="option-h" unicode="&#xe852;" d="M299 348c0-21-9-43-26-60-17-17-38-25-60-25s-42 8-59 25c-18 17-26 39-26 60s8 43 26 60c17 17 38 25 59 25s43-8 60-25c17-17 26-39 26-60z m298 0c0-21-8-43-25-60s-39-25-60-25-43 8-60 25-25 39-25 60 8 43 25 60 39 25 60 25 43-8 60-25 25-39 25-60z m299 0c0-21-8-43-26-60-17-17-38-25-59-25s-43 8-60 25c-17 17-26 39-26 60s9 43 26 60c17 17 38 25 60 25s42-8 59-25c18-17 26-39 26-60z" horiz-adv-x="1024" />

<glyph glyph-name="option-v" unicode="&#xe853;" d="M512 561c-21 0-43 9-60 26-17 17-25 38-25 60s8 42 25 59c17 18 39 26 60 26s43-8 60-26c17-17 25-38 25-59s-8-43-25-60c-17-17-39-26-60-26z m0-298c-21 0-43 8-60 25s-25 39-25 60 8 43 25 60 39 25 60 25 43-8 60-25 25-39 25-60-8-43-25-60-39-25-60-25z m0-299c-21 0-43 8-60 26-17 17-25 38-25 59s8 43 25 60c17 17 39 26 60 26s43-9 60-26c17-17 25-38 25-60s-8-42-25-59c-17-18-39-26-60-26z" horiz-adv-x="1024" />

<glyph glyph-name="pen" unicode="&#xe854;" d="M132-113h-17c-13 5-25 9-38 21-9 9-17 22-21 39-5 13-5 30 0 43l59 174c13 35 17 52 26 69 8 21 21 38 34 59 13 18 25 26 51 52l406 405c38 39 89 60 140 60s103-21 141-60c39-38 60-89 60-141s-21-102-60-140l-401-402c-26-25-38-38-56-51-16-13-38-25-55-34-17-9-34-13-68-25l-175-60c-9-4-17-9-26-9z m640 853c-38 0-68-12-94-38l-401-401-47-47c-12-13-21-30-30-47-8-13-12-30-21-59l-59-176v-8c0-4 0-4 4-4l4-4h8l176 59c34 13 46 17 59 21 17 9 30 18 47 30 13 9 26 22 47 43l405 405c26 26 39 60 39 98s-13 69-39 94c-30 22-64 34-98 34z m-614-827l-81 81 47 47 81-81-47-47z m691 503c-4 0-98 9-179 90-81 81-90 175-90 179l64 4s4-72 68-136c64-69 141-73 141-73l-4-64z" horiz-adv-x="1024" />

<glyph glyph-name="pictures" unicode="&#xe855;" d="M939-113h-427c-209 0-316 0-388 73-73 72-73 175-73 388v427c0 17 13 34 34 34s35-17 35-34v-427c0-192 0-290 51-341 51-51 149-51 341-51h427c17 0 34-13 34-35s-17-34-34-34z m-683 696c0 51 0 77 17 89 13 17 39 17 90 17s77 0 89-17c17-12 17-38 17-89s0-77-17-90c-12-17-38-17-89-17s-77 0-90 17c-17 13-17 39-17 90z m107-141c-56 0-90 0-115 26-26 25-26 59-26 115 0 55 0 89 26 115s59 26 115 26 89 0 115-26 26-60 26-115 0-90-26-115c-26-26-60-26-115-26z m0 213l-69-4-4-68 4-69 69-4 68 4 4 69-4 68-68 4z m-107-456c0 51 0 77 17 89 13 17 39 17 90 17s77 0 89-17c17-17 17-42 17-89s0-77-17-90c-12-17-38-17-89-17s-77 0-90 17c-17 13-17 39-17 90z m107-141c-56 0-90 0-115 26s-26 59-26 115 0 89 26 115 59 26 115 26 89 0 115-26 26-60 26-115 0-90-26-115c-26-26-60-26-115-26z m0 213l-69-4-4-68 4-69 69-4 68 4 4 69-4 68-68 4z m277 312c0 51 0 77 17 89 13 17 39 17 90 17s77 0 89-17c17-12 17-38 17-89s0-77-17-90c-12-17-38-17-89-17s-77 0-90 17c-17 13-17 39-17 90z m107-141c-56 0-90 0-115 26-26 25-26 59-26 115 0 55 0 89 26 115s59 26 115 26 89 0 115-26 26-60 26-115 0-90-26-115-60-26-115-26z m0 213l-69-4-4-68 4-69 69-4 68 4 4 69-4 68-68 4z m-107-456c0 51 0 77 17 89 17 17 43 17 90 17s77 0 89-17c17-17 17-42 17-89s0-77-17-90c-17-17-42-17-89-17s-77 0-90 17c-17 13-17 39-17 90z m107-141c-56 0-90 0-115 26s-26 59-26 115 0 89 26 115 59 26 115 26 89 0 115-26 26-60 26-115 0-90-26-115-60-26-115-26z m0 213l-69-4-4-68 4-69 69-4 68 4 4 69-4 68-68 4z" horiz-adv-x="1024" />

<glyph glyph-name="piechart" unicode="&#xe856;" d="M392 702c5-21-12-38-21-42-64-22-136-69-183-133s-68-136-68-213c-5-47 8-94 25-137s43-85 77-115c34-38 72-64 119-81s90-25 137-25c77 0 154 25 213 68 64 47 107 111 133 183 4 9 12 30 38 26 30-5 26-30 26-39-56-170-214-298-406-298-234 0-426 192-426 426 0 192 123 350 298 406 17 4 34-4 38-26z m542-264c-21 81-64 153-123 213s-133 102-214 124c-68 21-132-43-132-115v-286c0-39 30-64 64-64h286c77-5 141 55 119 128z" horiz-adv-x="1024" />

<glyph glyph-name="plain" unicode="&#xe857;" d="M623-108c-26 0-51 8-73 21-46 30-72 102-128 273-8 21-12 34-17 38-4 9-8 13-17 17-8 5-17 9-38 17-166 56-243 82-273 128-17 22-26 47-26 73s9 51 21 73c30 46 103 72 274 128l217 72c205 68 307 102 371 38s30-166-38-371l-72-217s-73-244-128-278c-18-8-48-12-73-12z m141 307l72 217c60 180 90 273 56 312-13 8-26 17-47 17-51 0-137-30-256-69l-222-76c-137-43-222-73-239-98-8-13-13-26-13-43s5-30 13-43c17-25 102-55 235-102 25-9 42-13 55-22s26-21 34-34 13-30 22-55c42-132 72-222 102-239 26-13 60-13 85 0 26 17 56 102 103 235m-184 187c-8 0-17 5-21 9-13 13-13 34 0 47l179 179c13 13 34 13 47 0s13-34 0-47l-179-179c-9-9-17-9-26-9z" horiz-adv-x="1024" />

<glyph glyph-name="planet" unicode="&#xe858;" d="M930 570c-30 38-90 55-188 34-64 60-145 85-230 85-90 0-179-34-248-102-64-60-98-149-98-239 0-13 0-30 5-38l0 0c-94-94-90-150-73-184 17-30 56-42 107-42 25 0 47 4 77 8 64-56 145-85 230-85 90 0 179 34 248 102 68 68 102 154 102 247 0 13 0 30-4 39 38 43 68 85 81 115 8 26 0 47-9 60z m-618-17c55 55 128 85 204 85s150-30 205-85c39-39 68-85 77-145-51-47-128-103-222-150-102-55-196-85-269-106-51 51-77 124-77 196-4 77 22 149 82 205z m-167-397c-9 13 4 38 34 81 13-34 30-68 51-94-42-4-76 0-85 13z m572-13c-56-55-128-85-205-85-56 0-107 17-154 42 77 26 162 56 244 99 81 38 145 85 204 132-8-68-38-132-89-188z m162 376c-4-17-17-35-34-60-13 34-30 68-51 94 55 4 81-5 85-17 4 0 4-4 0-17z" horiz-adv-x="1024" />

<glyph glyph-name="plus" unicode="&#xe859;" d="M512-28c-17 0-34 13-34 35v307h-307c-17 0-35 13-35 34s13 34 35 34h307v307c0 17 13 35 34 35s34-13 34-35v-307h307c17 0 35-13 35-34s-13-34-35-34h-307v-307c0-17-17-35-34-35z" horiz-adv-x="1024" />

<glyph glyph-name="prev" unicode="&#xe85a;" d="M661 24c-13-13-34-9-47 4l-256 299c-8 13-8 29 0 42l256 299c13 13 30 17 47 4 13-12 17-30 5-47l-239-277 239-277c8-13 8-35-5-47z" horiz-adv-x="1024" />

<glyph glyph-name="prev-end" unicode="&#xe85b;" d="M704 625c13-13 13-34 0-47l-230-230 234-235c13-13 13-34 0-47s-34-12-47 0l-256 256c-13 13-13 34 0 47l256 256c13 13 30 13 43 0z m-405 13c17 0 34-13 34-34v-512c0-17-13-34-34-34s-35 17-35 34v512c0 17 18 34 35 34z" horiz-adv-x="1024" />

<glyph glyph-name="question" unicode="&#xe85c;" d="M512-113c-252 0-461 209-461 461s209 461 461 461 461-209 461-461-209-461-461-461z m0 853c-218 0-392-174-392-392s174-392 392-392 392 174 392 392-174 392-392 392z m0-469c-17 0-34 13-34 34v51c0 22 8 56 55 82 9 4 13 8 17 17 5 8 5 17 5 25 0 9-5 17-9 26-4 8-8 13-17 17-9 4-17 4-25 4-9 0-18-4-26-8 4 0-4-5-9-13-4-9-4-17-4-26 0-17-13-34-34-34s-30 17-30 34c0 22 4 39 17 56 9 17 26 30 43 42 17 9 34 18 55 18s39-5 56-13c17-9 30-26 42-43 9-17 18-38 18-56 0-21-5-38-13-55-9-17-26-30-43-43-17-8-26-21-26-25v-56c-4-17-21-34-38-34z m0-136c26 0 43 17 43 42s-17 43-43 43-43-17-43-43 17-42 43-42z" horiz-adv-x="1024" />

<glyph glyph-name="question-solid" unicode="&#xe85d;" d="M512 775c-235 0-427-192-427-427s192-427 427-427 427 192 427 427-192 427-427 427z m0-640c-26 0-43 17-43 42s17 43 43 43 43-17 43-43-17-42-43-42z m56 251l-18-17-8-8v-56l-13-13c-17-8-38-4-47 13v56c0 21 9 38 17 51l39 30c12 8 21 21 21 38 0 26-21 47-47 47-26 0-47-21-47-47 0-17-17-34-34-34a38 38 0 0 0-34 34c0 39 21 73 51 94a111 111 0 1 0 120-188z" horiz-adv-x="1024" />

<glyph glyph-name="redo" unicode="&#xe85e;" d="M597 711c13 13 35 13 47 0l214-214c17-17 17-34 0-55l-214-205c-12-13-34-13-47 0s-13 34 0 47l188 192-188 192c-13 13-13 30 0 43z m-345-252c51 38 111 47 153 47h427c17 0 34-13 34-34s-13-34-34-34h-427c-29 0-72-13-115-39-34-21-68-59-68-136 0-17-13-35-34-35s-26 18-26 35c0 93 38 157 90 196z m0-393c51-38 111-46 153-46h427c17 0 34 12 34 34s-13 34-34 34h-427c-29 0-77 8-115 38-34 17-68 60-68 137 0 17-13 34-34 34s-26-17-26-34c0-94 38-158 90-197z" horiz-adv-x="1024" />

<glyph glyph-name="reset" unicode="&#xe85f;" d="M512-70c-51 0-102 8-149 30-81 34-145 98-184 179-38 81-47 171-25 256s72 162 145 213 162 77 247 68c77-4 150-38 209-85v107c0 17 13 34 34 34s35-13 35-34v-179c0-9 0-17-9-26-9-9-21-9-26-9h-179c-17 0-34 13-34 35 0 17 13 34 34 34h102c-46 38-106 59-166 64-72 4-145-13-205-56s-111-111-128-179-8-145 22-213c34-64 85-120 153-149s141-35 214-13c68 21 132 64 170 128 39 59 56 136 47 209-4 17 9 34 30 34 17 0 34-9 34-30 9-102-8-175-59-252-48-72-120-128-205-153-35-5-73-13-107-13z" horiz-adv-x="1024" />

<glyph glyph-name="save" unicode="&#xe860;" d="M512 553h-213c-17 0-35-13-35-34s13-35 35-35h213c17 0 34 13 34 35s-13 34-34 34z m410 21c-5 13-13 22-30 38l-120 120c-12 13-21 21-38 30-13 4-26 4-47 4h-307c-124 0-196 0-244-47-46-47-46-115-46-243v-256c0-124 0-196 46-243 48-47 116-47 244-47h256c124 0 196 0 243 47 47 47 47 115 47 243v307c0 21 0 34-4 47z m-274-576h-315v51c0 73 0 107 17 124s47 17 124 17h42c73 0 107 0 124-17s17-47 17-124v-51z m214 222c0-111 0-166-30-196-21-22-56-26-120-26v51c0 86 0 133-34 167s-81 34-166 34h-43c-85 0-132 0-166-34s-34-81-34-167v-51c-39 0-64 9-77 26-30 30-30 85-30 196v256c0 111 0 166 30 196 30 30 85 30 196 30h329s8-8 17-13l119-119c5-4 13-13 13-17v-329z" horiz-adv-x="1024" />

<glyph glyph-name="search" unicode="&#xe861;" d="M491-70c-243 0-435 196-435 435 0 243 196 435 435 435 243 0 435-196 435-435 4-239-192-435-435-435z m0 810c-205 0-376-166-376-375 0-205 167-375 376-375 205 0 375 166 375 375-4 209-170 375-375 375z m448-853c-9 0-17 5-22 9l-149 153c-13 13-13 35 0 47s34 13 47 0l149-149c13-13 13-34 0-47-8-8-17-13-25-13z" horiz-adv-x="1024" />

<glyph glyph-name="select" unicode="&#xe862;" d="M171 591h431c12-30 42-51 81-51s68 21 81 51h89c17 0 35 13 35 34s-18 30-35 30h-89c-13 30-43 56-81 56s-69-22-81-56h-431c-17 0-35-13-35-34s18-30 35-30z m682-491h-217c-13 30-43 56-81 56s-69-21-81-56h-303c-17 0-35-12-35-34s13-34 35-34h303c12-30 42-51 81-51s68 21 81 51h217c17 0 35 13 35 34s-18 34-35 34z m0 278h-431c-12 34-46 55-81 55s-68-21-81-55h-89c-17 0-35-13-35-34s13-34 35-34h89c13-26 47-47 81-47s69 21 81 51h431c17 0 35 13 35 34s-18 30-35 30z" horiz-adv-x="1024" />

<glyph glyph-name="shape" unicode="&#xe863;" d="M939 476c0 166-133 299-299 299-149 0-273-111-294-256h-133c-72 0-128-56-128-128v-342c0-72 56-128 128-128h342c72 0 128 56 128 128v133c145 21 256 145 256 294z m-342-427c0-25-17-42-42-42h-342c-25 0-42 17-42 42v342c0 25 17 42 42 42h128 214c25 0 42-17 42-42v-214-128z m86 218v124c0 72-56 128-128 128h-124c21 98 107 170 209 170 120 0 213-93 213-213 0-102-72-188-170-209z" horiz-adv-x="1024" />

<glyph glyph-name="share" unicode="&#xe864;" d="M730 207c-39 0-73-17-103-43l-13-12-196 136c9 17 13 39 13 60s-4 43-13 60l196 136 13-12c26-26 64-43 103-43 38 0 72 17 102 43s43 64 43 102c0 38-17 72-43 102s-64 39-102 39c-39 0-73-17-103-43s-43-64-43-102l5-26-205-141-4-4a128 128 0 0 1-86 30c-38 0-76-13-102-39-26-25-43-64-43-102s17-72 43-102c26-26 64-43 102-43 34 0 64 13 90 30l4-5 209-144-4-26c0-38 17-73 43-102s64-43 102-43c38 0 73 17 102 43s43 64 43 102-17 72-43 102-72 47-110 47z m-52 478c13 13 34 21 56 21s38-8 55-21 22-34 22-55-9-39-22-56-34-21-55-21-38 8-56 21-21 34-21 56c-4 21 4 42 21 55z m-332-393c-13-12-34-21-56-21s-38 9-55 21c-13 13-22 35-22 56s9 38 22 56c13 12 34 21 55 21s38-9 56-21c12-13 21-35 21-56s-4-38-21-56z m439-281c-13-13-34-21-55-21s-39 8-56 21-21 34-21 55 8 39 21 56 34 21 56 21 38-8 55-21 21-34 21-56-8-42-21-55z" horiz-adv-x="1024" />

<glyph glyph-name="signpost" unicode="&#xe865;" d="M909 207l-21 47-39 47-4 4c-13 17-26 30-43 39l-21 8-56 4h-183v22h260a85 85 0 0 1 51 17l30 30c9 17 13 34 13 55v137a85 85 0 0 1-17 51l-30 30-51 17h-260v30l-9 21-17 9-21-9-9-21v-30h-183l-56-4-21-9c-17-8-26-21-43-38l-4-4-39-48c-12-12-16-29-21-46v-39l21-47 39-47 4-4c17-17 26-30 43-38l21-9 56-4h183v-22h-260a85 85 0 0 1-51-16l-30-30-13-52v-140c0-18 4-34 17-52l30-30 51-16h260v-39h-51c-17 0-30-13-30-30s13-30 26-30h158c17 0 30 13 30 30s-13 30-30 30h-51v39h183l55 4 22 8c17 9 26 22 42 39l5 4 38 47 21 47c9 13 9 25 5 38z m-649 235h-8l-30 30-38 42-9 22v17l13 21 38 43 26 34 8 4 43 5h491l25-9 13-13 8-26v-128l-8-25-13-13-25-8h-491l-43 4z m589-260l-13-22-38-42-30-30-8-4-43-5h-491l-26 9-12 12-9 26v128l9 26 12 12 26 9h491l43-4 8-5 30-29 38-43 13-21c4-5 4-13 0-17z" horiz-adv-x="1024" />

<glyph glyph-name="spiderchart" unicode="&#xe866;" d="M721-92h-418c-51 0-119 99-132 150l-94 324c-13 47 4 98 43 128l324 235c42 30 98 30 136 0l324-235c39-30 43-154 26-200l-77-252c-13-51-81-150-132-150z m-209 794c-13 0-21-4-30-8l-324-235c-22-17-30-39-22-60l116-388c8-21 25-39 51-39h418c26 0 43 18 51 39l116 388c8 21 0 47-22 60l-324 235c-9 4-17 8-30 8z m-243-772c-9 0-13 4-21 8-13 13-18 30-5 47l124 145c13 13 17 0 34-12 13-13 30-13 17-30l-124-145c-8-9-17-13-25-13z m486 0c-8 0-17 4-25 13l-124 145c-13 12 4 17 17 30 13 12 21 25 34 12l124-145c13-13 8-34-5-47-4-4-12-8-21-8z m-34 422c-13 0 0 17-4 30-5 17-21 26-5 30l176 56c16 4 34-5 38-22s-4-34-22-38l-174-56h-9z m-418 0h-9l-174 56c-18 8-26 25-22 42 4 18 22 26 38 22l176-56c16-4 12-17 8-34-4-17-4-30-17-30z m209 167c-17 0-34 13-34 34v179c0 17 13 34 34 34s34-13 34-34v-184c0-16-17-29-34-29z m209-611h-73v64h73c26 0 43 18 51 39l22 64 59-17-21-64c-13-51-60-86-111-86z m-345 0h-73c-51 0-98 35-111 86l-21 64 59 17 22-64c8-21 25-39 51-39h73v-64z m208 154h-149c-51 0-94 34-111 81l-60 175c-16 47 0 102 43 132l133 98c42 30 98 30 140 0l132-98c43-30 60-81 43-132l-59-175c-13-47-60-81-112-81z m-72 444c-13 0-21-4-34-13l-132-98c-18-13-26-39-18-60l60-175c9-21 26-38 52-38h149c21 0 43 13 51 38l60 175c8 21 0 47-17 60l-69 51-64 51c-17 9-25 9-38 9z m418-196l-60 17 22 68c8 21 0 47-22 60l-55 42 38 51 56-42c38-30 59-81 43-128l-22-68z m-832 0l-26 68c-12 47 5 98 43 128l56 42 38-46-51-47c-22-13-30-35-22-56l26-81-64-8z m324 341l-34 51 56 43c42 30 98 30 136 0l56-43-30-51-64 43c-17 12-43 12-64 0l-56-43z" horiz-adv-x="1024" />

<glyph glyph-name="stackedchart" unicode="&#xe867;" d="M384-28h-128c-43 0-77 35-77 77v342c0 42 34 77 77 77h128c43 0 77-35 77-77v-342c0-42-34-77-77-77z m-128 427c-4 0-8-4-8-8v-342c0-4 4-8 8-8h128c4 0 8 4 8 8v342c0 4-4 8-8 8h-128z m512-427h-128c-43 0-77 35-77 77v555c0 43 34 77 77 77h128c43 0 77-34 77-77v-555c0-42-34-77-77-77z m-128 640c-4 0-8-4-8-8v-555c0-4 4-8 8-8h128c4 0 8 4 8 8v555c0 4-4 8-8 8h-128z m-43-358h214v-64h-214z m-384 0h214v-64h-214z m384 214h214v-64h-214z" horiz-adv-x="1024" />

<glyph glyph-name="star" unicode="&#xe868;" d="M981 391c-234 0-426 192-426 426 0 26-17 43-43 43s-43-17-43-43c0-234-192-426-426-426-26 0-43-17-43-43s17-43 43-43c234 0 426-192 426-426 0-26 17-43 43-43s43 17 43 43c0 234 192 426 426 426 26 0 43 17 43 43s-17 43-43 43z m-469-307c-51 119-145 213-264 264 119 51 213 145 264 264 51-119 145-213 264-264-119-51-213-145-264-264z" horiz-adv-x="1024" />

<glyph glyph-name="star-5" unicode="&#xe869;" d="M482 719a981 981 0 0 1-64-107l-13-25a3571 3571 0 0 1-42-60c-22-13-43-17-64-21h-9l-26-9a896 896 0 0 1-115-29c-25-9-29-18-29-26 0-4 0-17 12-43l73-89 21-26c22-21 34-38 43-60 4-21 0-42 0-68v-34l-13-128c0-26 8-34 13-38h38l111 51 26 13c25 12 42 21 68 21 21 0 43-9 64-17l4-4 26-13c51-22 85-39 111-43 25-8 34-4 38 0 5 0 9 8 13 38 0 26 0 64-8 124v30a2193 2193 0 0 1 0 72c4 22 16 39 34 60h4l17 26c38 42 64 68 77 94 17 21 17 34 12 42 0 0-4 13-29 22a896 896 0 0 1-115 30l-26 4a3200 3200 0 0 1-73 26c-17 12-25 34-42 55v4l-13 26-64 107c-17 21-26 21-30 21-4 0-13 0-30-21z m-55 39c21 25 42 46 81 46 34 0 60-21 81-46 21-26 43-64 68-111l13-26 26-43 42-12 30-5 128-34c30-13 56-30 68-64 9-34 0-64-21-94-17-29-43-59-81-102l-17-21c-26-26-30-34-30-43v-77l13-132c0-34-9-68-39-86-29-25-59-21-93-12l-116 47-30 13c-30 16-38 16-42 16-4 0-13 0-43-16l-25-9c-52-26-86-43-120-51-34-9-64-13-94 8-30 22-34 56-38 90 0 34 0 77 8 128v34c9 34 9 43 4 51 0 5-4 13-29 39l-17 21c-34 43-64 73-82 102-16 30-29 60-21 94 13 34 43 51 73 64 30 13 68 21 119 30l30 9 43 12c8 5 12 13 30 43l12 26c26 47 47 85 69 111z" horiz-adv-x="1024" />

<glyph glyph-name="star-fill" unicode="&#xe86a;" d="M981 391c-234 0-426 192-426 426 0 26-17 43-43 43s-43-17-43-43c0-234-192-426-426-426-26 0-43-17-43-43s17-43 43-43c234 0 426-192 426-426 0-26 17-43 43-43s43 17 43 43c0 234 192 426 426 426 26 0 43 17 43 43s-17 43-43 43z" horiz-adv-x="1024" />

<glyph glyph-name="taiwan" unicode="&#xe86b;" d="M452-143h-8c-22 0-39 13-52 30-8 13-16 26-16 47 0 13-5 30 0 47v4s0 13-26 26l-13 13c-25 21-68 60-89 132-39 107 12 222 64 312 16 34 38 68 59 102l21 38c26 39 52 81 69 124 13 26 34 60 94 68 4 0 13 0 17 4 8 9 25 22 42 30 18 9 39 9 60 9 22-4 43-17 56-34l4-5c17 0 34-4 51-16 9-9 17-13 21-26l13-13c13-17 21-43 13-64-4-17-13-30-21-43l-9-8-4-4c13-39 13-98-43-171-4-13-30-64-43-171v-4c-8-34-21-68-38-102-21-43-51-77-81-103-4-13-13-34-13-59 0-9 0-48-4-77 0-13-4-30-13-47-8-17-21-26-38-34-17-5-30-5-47 0-9-5-17-5-26-5z m201 918c-5 0-9 0-17-5-13-4-22-17-26-21l-8-9-22-4h-17c-21-4-38-12-43-30-16-46-46-89-72-132l-21-38c-22-34-43-68-60-98-47-82-90-175-60-265 17-60 51-85 69-102l4-5c51-30 60-72 55-94v-29c0-9 5-13 5-17 4-5 4-5 8-5h8l18 9 17-9h4l4 5c5 4 5 12 9 25 4 26 4 56 4 64 0 51 17 90 26 98l4 5 4 4c26 21 51 47 68 85 22 43 30 77 34 85 13 103 39 171 52 197l4 4c38 47 43 90 34 107-8 17-8 34 0 47 9 17 22 25 26 29 0 9 4 13 4 18v8l-4 4-13 5-4 13c0 4 0 4-5 4-4 4-8 4-12 4h-18c-4 0-8 4-12 8-13 9-17 18-22 22-4 8-12 13-21 13h-4z" horiz-adv-x="1024" />

<glyph glyph-name="taiwan-fill" unicode="&#xe86c;" d="M606 745c-13-13-68 0-86-39-72-170-268-371-213-533 17-60 51-89 73-107 51-34 60-68 55-94-13-51 13-55 21-51 13 9 26 5 35 0 17-13 21 56 21 94 0 51 17 90 30 103 60 46 98 136 106 174 18 112 39 176 52 197 47 55 42 98 34 111-17 34 8 64 21 76 21 26 0 35-13 35 9 21-4 25-12 21-22-4-43 17-52 26-25 34-59 4-72-13z" horiz-adv-x="1024" />

<glyph glyph-name="target" unicode="&#xe86d;" d="M512-113c-252 0-461 209-461 461s209 461 461 461 461-209 461-461-209-461-461-461z m0 853c-218 0-392-174-392-392s174-392 392-392 392 174 392 392-174 392-392 392z m0-682c-158 0-290 128-290 290 0 158 128 290 290 290 158 0 290-128 290-290 0-158-132-290-290-290z m0 512c-124 0-222-102-222-222 0-124 102-222 222-222 124 0 222 102 222 222 0 124-98 222-222 222z m0-307c47 0 85 38 85 85s-38 85-85 85-85-38-85-85 38-85 85-85z" horiz-adv-x="1024" />

<glyph glyph-name="text" unicode="&#xe86e;" d="M632 497h-240c-16 0-29-13-29-29s13-30 29-30h90v-210c0-16 13-29 30-29s30 13 30 29v210h90c16 0 29 12 29 30s-13 29-29 29z m226-362v426c17 5 34 13 46 26 22 21 35 51 35 77s-13 55-30 76c-43 43-115 43-154 0-13-12-21-29-25-46h-431c-5 21-13 34-26 46-43 43-115 43-153 0-22-16-35-46-35-76s13-56 30-77c17-13 30-21 51-26v-426c-17-5-34-13-46-26-22-21-35-51-35-77 0-30 13-55 30-76s51-35 81-35 56 13 77 30c13 13 21 30 26 47h426c5-17 13-34 26-47 21-21 47-30 77-30s55 13 76 30c22 21 30 47 30 77 0 30-12 56-30 77-12 17-25 25-46 30z m-107-26c-13-13-21-30-26-47h-426c-5 17-13 34-26 47-13 13-30 21-47 26v426c17 5 34 13 47 26 13 13 21 30 26 47h426c5-17 13-34 26-47 13-13 30-21 47-26v-426c-17-5-34-13-47-26z m43 593c8 9 21 13 34 13s25-4 34-13c8-8 13-21 13-34 0-13-5-26-13-34-17-17-51-17-68 0-9 8-13 21-13 34 0 8 4 21 13 34z m-649-38c0 12 4 25 13 34 13 13 26 17 38 17 13 0 26-4 34-13 9-13 13-26 13-38 0-13-4-26-13-34-17-18-51-18-68 0-13 8-17 21-17 34z m85-670c-17-17-51-17-68 0-8 8-13 21-13 34s5 26 13 34c9 9 22 13 34 13 13 0 26-4 34-13 9-8 13-21 13-34s-4-21-13-34z m636 0c-17-17-51-17-68 0-9 8-13 21-13 34s4 26 13 34c8 9 21 13 34 13s26-4 34-13c9-8 13-21 13-34s-4-21-13-34z" horiz-adv-x="1024" />

<glyph glyph-name="top-end" unicode="&#xe86f;" d="M811 305c-13-13-35-13-47 0l-201 201v-521c0-17-13-34-34-34s-34 13-34 34v521l-196-201c-13-13-35-13-47 0-13 13-13 35 0 47l256 256c12 13 34 13 47 0l256-256c13-17 13-34 0-47z m8 406c0-17-13-35-34-35h-512c-17 0-34 13-34 35s13 34 34 34h512c21-5 34-17 34-34z" horiz-adv-x="1024" />

<glyph glyph-name="tpl-0" unicode="&#xe870;" d="M171 519h256c25 0 42-17 42-43v-256c0-26-17-43-42-43h-256c-26 0-43 17-43 43v256c0 26 17 43 43 43z m426 0h256c26 0 43-17 43-43v-256c0-26-17-43-43-43h-256c-25 0-42 17-42 43v256c0 26 17 43 42 43z" horiz-adv-x="1024" />

<glyph glyph-name="tpl-1" unicode="&#xe871;" d="M853 7h-682c-26 0-43 17-43 42v214c0 25 17 42 43 42h682c26 0 43-17 43-42v-214c0-25-17-42-43-42z m0 384h-682c-26 0-43 17-43 42v214c0 25 17 42 43 42h682c26 0 43-17 43-42v-214c0-25-17-42-43-42z" horiz-adv-x="1024" />

<glyph glyph-name="tpl-2" unicode="&#xe872;" d="M171 689h256c25 0 42-17 42-42v-214c0-25-17-42-42-42h-256c-26 0-43 17-43 42v214c0 25 17 42 43 42z m0-384h682c26 0 43-17 43-42v-214c0-25-17-42-43-42h-682c-26 0-43 17-43 42v214c0 25 17 42 43 42z m426 384h256c26 0 43-17 43-42v-214c0-25-17-42-43-42h-256c-25 0-42 17-42 42v214c0 25 17 42 42 42z" horiz-adv-x="1024" />

<glyph glyph-name="tpl-3" unicode="&#xe873;" d="M853 7h-256c-25 0-42 17-42 42v214c0 25 17 42 42 42h256c26 0 43-17 43-42v-214c0-25-17-42-43-42z m0 384h-682c-26 0-43 17-43 42v214c0 25 17 42 43 42h682c26 0 43-17 43-42v-214c0-25-17-42-43-42z m-426-384h-256c-26 0-43 17-43 42v214c0 25 17 42 43 42h256c25 0 42-17 42-42v-214c0-25-17-42-42-42z" horiz-adv-x="1024" />

<glyph glyph-name="tpl-4" unicode="&#xe874;" d="M171 689h256c25 0 42-17 42-42v-214c0-25-17-42-42-42h-256c-26 0-43 17-43 42v214c0 25 17 42 43 42z m0-384h256c25 0 42-17 42-42v-214c0-25-17-42-42-42h-256c-26 0-43 17-43 42v214c0 25 17 42 43 42z m426 0h256c26 0 43-17 43-42v-214c0-25-17-42-43-42h-256c-25 0-42 17-42 42v214c0 25 17 42 42 42z m0 384h256c26 0 43-17 43-42v-214c0-25-17-42-43-42h-256c-25 0-42 17-42 42v214c0 25 17 42 42 42z" horiz-adv-x="1024" />

<glyph glyph-name="undo" unicode="&#xe875;" d="M427 711c-13 13-30 13-43 0l-213-209c-13-13-13-39 0-52l213-209c13-13 34-13 47 0s13 35 0 47l-192 188 188 192c13 13 13 30 0 43z m345-252c-51 38-111 47-153 47h-427c-17 4-30-13-30-30s13-34 34-34h427c30 0 77-9 115-38 34-26 64-64 64-141 0-17 13-39 34-39s34 13 34 34c9 98-46 162-98 201z m0-393c-51-38-111-46-153-46h-427c-17 0-34 12-34 34s13 34 34 34h427c29 0 77 8 115 38 34 26 68 68 68 145 0 17 13 34 34 34s34-25 34-47c-4-89-46-153-98-192z" horiz-adv-x="1024" />

<glyph glyph-name="unmarked" unicode="&#xe876;" d="M286-66h-9c-21 4-42 13-59 30-34 34-34 85-34 205v171c0 153 0 230 51 285 51 56 128 56 277 56h85c17 0 35-13 35-34s-18-30-35-30h-85c-132 0-196 0-230-34-34-39-34-107-34-248v-171c0-85 0-144 12-157 9-5 13-9 26-13 17-4 64 38 124 94 38 34 55 51 85 60 13 4 30 4 43 0 30-5 46-26 85-56 60-51 107-94 124-94 8 0 17 4 25 13 13 13 13 73 13 158v149c0 17 13 34 34 34s34-12 34-34v-149c0-120 0-171-34-205-17-17-38-26-59-30-48-4-86 30-171 107-30 25-43 38-56 43h-17c-12-5-25-18-55-43-94-73-133-107-175-107z m614 461c-8 0-17 4-21 9l-179 179c-13 13-13 34 0 47s34 12 47 0l179-180c13-12 13-34 0-46-9-5-17-9-26-9z m-179 0c-9 0-17 4-21 9-13 12-13 34 0 46l179 180c13 12 34 12 47 0s13-34 0-47l-179-179c-9-5-17-9-26-9z" horiz-adv-x="1024" />

<glyph glyph-name="unvis-chart" unicode="&#xe877;" d="M768 775h-512c-26 0-47-5-68-17l51-52h533c60 0 107-46 107-106v-214c0-59-47-106-107-106h-106l59-60h43c94 0 171 77 171 171v213c0 94-77 171-171 171z m-512-491c-60 0-107 47-107 107v234c5 22 13 39 26 56l4 4-43 43-4-4c-12-18-25-35-30-52-12-21-17-42-17-68v-213c0-94 77-171 171-171h388l-64 64h-324z m538-213l-5-5c-4-4-13-8-21-8h-597c-17 0-35 13-35 34s13 34 35 34h571l52-55z m-239-184h-384c-17 0-35 13-35 34s13 35 35 35h384c17 0 34-13 34-35s-17-34-34-34z m-192 615l47-47-5-5-42-42-43-43c-4-4-13-9-21-9s-17 5-22 9c-13 13-13 34 0 47l43 43 38 42 5 5z m384 81l-103-107c-17-17-30-30-42-34-9-4-22-9-34-9-9 0-26 0-35 5-13 4-64 55-68 55h-13l-47 47c5 4 39 21 51 21 18 0 26 0 35-4 17-4 64-51 68-55 4-5 9-5 13-5 4 0 8 5 21 17l107 116c12 12 34 12 47 0 13-18 13-34 0-47z m162-636l-120 119-55 56-598 597-12 13c-4 4-9 13-9 17l627-627 52-51 106-107c4-4 9-13 9-17z m-9-26c-17-17-38-4-42 0l-141 141-653 649c-13 13-13 34 0 47s34 12 47 0l9-9 627-627 51-51 106-107c9-8 13-30-4-43z" horiz-adv-x="1024" />

<glyph glyph-name="upload" unicode="&#xe878;" d="M666 642l-146 137-4 4-4 5-13 4-13-4-4-5-4-4-145-137c-13-12-13-34 0-46 13-13 34-13 47 0l89 85 5-478c0-21 12-34 34-34s34 17 34 34l-4 482 89-85c13-13 34-13 47 0 13 12 13 34-8 42z m132-725l-580 4c-94 0-167 77-167 167v286c0 94 77 166 167 166h162c17 0 34-13 34-34 4-22-17-30-34-30h-158c-56 0-102-47-102-102v-286c0-56 46-103 102-103l584-4c56 0 103 47 103 103v285c0 56-47 103-103 103h-162c-17 0-34 12-34 34s13 34 34 34h162c94 0 167-77 167-166v-286c-5-94-81-171-175-171z" horiz-adv-x="1024" />

<glyph glyph-name="user" unicode="&#xe879;" d="M512 399c-111 0-205 90-205 205s94 205 205 205 205-90 205-205-94-205-205-205z m0 341c-77 0-136-64-136-136s64-136 136-136 136 64 136 136-59 136-136 136z m0-853c-346 0-376 90-376 222 0 124 163 222 376 222 209 0 376-98 376-222 0-132-30-222-376-222z m0 384c-166 0-307-72-307-162 0-98 0-162 307-162s307 64 307 162c0 90-141 162-307 162z" horiz-adv-x="1024" />

<glyph glyph-name="user-circle" unicode="&#xe87a;" d="M512 570a98 98 0 1 1 0-192 98 98 0 0 1 0 196z m-162-94a158 158 0 1 0 320 0 158 158 0 0 0-316 0z m162 264a397 397 0 1 1 0-789 397 397 0 0 1 0 794z m-461-392a461 461 0 1 0 922 0 461 461 0 0 0-922 0z m235-166c42 46 119 72 226 72s179-26 226-72c43-43 56-111 60-171a34 34 0 0 0-64-4c0 59-13 102-43 128-25 29-77 55-179 55-102 0-154-26-179-51-30-30-43-73-43-132a34 34 0 0 0-64 0c0 64 13 128 60 175z" horiz-adv-x="1024" />

<glyph glyph-name="user-plus" unicode="&#xe87b;" d="M512 740a141 141 0 1 1 0-277 141 141 0 0 1 0 282z m-205-136a205 205 0 1 0 410 0 205 205 0 0 0-410 0z m205-269c43 0 90 0 136-13a34 34 0 0 0-16-64c-39 9-77 18-120 13-90 0-171-17-226-51-56-30-86-68-86-107 0-55 0-85 35-111 13-12 42-25 85-34 43-8 107-17 192-17a725 725 0 0 1 239 30c43 17 55 34 64 55a30 30 0 1 0 60-16c-13-43-43-77-103-99a1224 1224 0 0 0-465-17c-51 13-85 26-115 47-56 43-56 107-51 158v4c0 69 47 128 115 163 68 42 158 59 256 59z m427-158a171 171 0 1 0-342 0 171 171 0 0 0 342 0z m-141 56a34 34 0 0 1-60 0v-26h-26a34 34 0 0 1 0-59h26v-26a34 34 0 0 1 60 0v26h26a34 34 0 0 1 0 59h-26v26z" horiz-adv-x="1024" />

<glyph glyph-name="user-search" unicode="&#xe87c;" d="M512 570a98 98 0 1 1 0-192 98 98 0 0 1 0 196z m-162-94a158 158 0 1 0 320 0 158 158 0 0 0-316 0z m162 264a397 397 0 1 1 120-768 30 30 0 1 0 16-64 456 456 0 1 0 316 512 34 34 0 0 0-64-12 397 397 0 0 1-388 332z m-226-558c42 46 119 72 226 72l90-8a30 30 0 1 0-5-69l-81 9c-102 0-153-26-179-51-30-30-43-73-43-133a34 34 0 0 0-64 0c0 64 13 128 60 175z m474 132a128 128 0 1 1 0-256 128 128 0 0 1 0 256z m-197-128a192 192 0 1 0 389 0 192 192 0 0 0-384 0z m290-94c17 8 35 8 47 0l60-64a30 30 0 1 0-43-43l-64 60a30 30 0 0 0 0 43z" horiz-adv-x="1024" />

<glyph glyph-name="vis" unicode="&#xe87d;" d="M512-28c-192 0-324 116-397 214-38 47-59 98-59 162s21 111 59 162c77 98 205 214 397 214s324-116 397-214c38-51 59-81 59-162 0-56-38-132-59-162-73-94-205-214-397-214z m0 683c-166 0-282-102-346-187-34-48-46-77-46-120 0-38 12-77 46-120 64-85 180-187 346-187s282 102 346 187c34 48 46 86 46 120 0 38-12 77-46 120-69 89-180 187-346 187z m0-469c-43 0-81 17-115 47s-47 72-47 115 17 81 47 115c59 60 166 60 226 0 30-30 47-68 47-115 0-43-17-81-47-115s-68-47-111-47z m0 256c-26 0-51-9-68-30-17-17-30-43-30-68s8-52 30-68c34-35 98-35 136 0 17 16 30 42 30 68s-8 51-30 68c-17 21-42 30-68 30z" horiz-adv-x="1024" />

<glyph glyph-name="vis-chart" unicode="&#xe87e;" d="M768 220h-512c-94 0-171 77-171 171v213c0 94 77 171 171 171h512c94 0 171-77 171-171v-213c0-94-77-171-171-171z m-512 491c-60 0-107-47-107-107v-213c0-60 47-107 107-107h512c60 0 107 47 107 107v213c0 60-47 107-107 107h-512z m512-653h-597c-17 0-35 13-35 34s13 34 35 34h597c17 0 34-13 34-34s-17-34-34-34z m-213-171h-384c-17 0-35 13-35 34s13 35 35 35h384c17 0 34-13 34-35s-17-34-34-34z m-256 469c-9 0-17 5-22 9-13 13-13 34 0 47l103 107c17 17 30 29 42 34 9 4 22 8 34 8 13 0 26 0 35-4 13-4 25-17 42-34 13-9 22-17 26-21h17c4 0 13 12 21 21l103 107c12 12 34 12 47 0 13-13 13-34 0-47l-103-107c-17-17-30-30-42-34-13-4-22-9-34-9-13 0-26 0-35 5-13 4-25 17-42 34-13 12-22 21-26 21h-17c-4 0-13-13-21-21l-103-107c-8-4-17-9-25-9z" horiz-adv-x="1024" />

<glyph glyph-name="fullscreen" unicode="&#xe87f;" d="M712 740a34 34 0 0 0 0 64h227c17 0 34-12 34-29v-227a34 34 0 0 0-69 0v150l-328-329a30 30 0 1 0-43 43l329 333h-150z m-430-8c-56-4-86-17-111-43-26-25-39-55-43-111a1924 1924 0 0 1 0-460c4-56 17-86 43-111 25-26 55-39 111-43a1924 1924 0 0 1 460 0c56 4 86 17 111 43 26 25 39 55 43 111 8 55 13 128 13 230a34 34 0 0 0 59 0l-4-239a243 243 0 0 0-68-145c-43-38-85-56-149-64l-235-4h-8l-235 4a243 243 0 0 0-141 64c-38 43-56 85-64 149-8 60-8 137-4 235v8l4 235c4 56 21 107 64 141 43 43 85 60 145 68 60 9 137 9 235 4h4a34 34 0 0 0 0-59c-102 0-171 0-230-9z m-154-768z" horiz-adv-x="1024" />

<glyph glyph-name="arr-right-up-broken" unicode="&#xe880;" d="M350 604c0 17 13 34 34 34h384c17 0 34-13 34-34v-384c0-17-13-34-34-34s-34 13-34 34v307l-222-222c-13-13-34-13-47 0s-13 35 0 47l222 222h-303c-17-4-34 13-34 30z m34-384c13-13 13-34 0-47l-107-107c-13-12-34-12-47 0-12 13-12 34 0 47l111 107c13 13 30 13 43 0z" horiz-adv-x="1024" />

<glyph glyph-name="id-edit" unicode="&#xe881;" d="M384 527c-30 0-51-21-51-51s25-56 55-56 56 26 56 56-30 51-60 51z m-115-51c0 64 51 120 119 120 64 0 120-52 120-120 0-64-52-120-120-120-68 0-119 56-119 120z m8-226c-25-13-34-26-34-30 0-26 0-30 9-34 4-4 17-9 38-13 22-4 51-9 94-9 43 0 72 5 94 5 21 4 34 8 38 13 9 4 9 8 9 34 0 4-5 17-34 30-26 17-64 25-107 25-43 0-81-8-107-21z m-29 60c34 17 85 30 136 30 51 0 98-9 136-30 35-18 69-47 69-90 0 0 0 0 0-4 0-22 0-60-34-86-17-12-39-17-64-25-26-5-60-9-103-9-42 0-76 4-102 9-26 4-47 13-64 25-34 26-34 60-34 86 0 0 0 0 0 4-4 43 25 72 60 90z m-5 341c-43-4-68-17-85-34l0 0 0 0c-17-17-30-43-34-85-4-43-4-103-4-184s0-141 4-184c4-42 17-68 34-85l0 0 0 0c17-17 42-30 85-34 43-4 103-4 184-4h170c81 0 141 0 184 4 43 4 68 17 85 34l0 0c17 17 30 43 34 85 4 43 4 103 4 184v171c0 17 13 34 35 34s34-13 34-34v-175c0-77 0-141-9-188-8-51-21-90-51-124-30-30-73-47-124-51-47-9-111-9-187-9h-180c-76 0-140 0-187 9-51 9-90 21-124 51-30 30-47 73-51 124-9 47-9 111-9 188v4c0 77 0 141 9 188 8 51 21 89 51 124 30 29 73 46 124 51 47 8 111 8 187 8h175c17 0 35-13 35-34s-18-30-35-30h-170c-81 0-141 0-184-4z m576 4c-8 9-17 17-21 30l-111-111c0 0 0 0 0 0-9-8-13-13-17-17l0 0c-4-4-9-9-9-13 0-4-4-8-8-21l-13-43 4-4 39 13 0 0 0 0c13 4 17 4 21 8 4 5 8 5 13 9l0 0c4 4 8 4 17 17l111 111c-9 4-17 8-26 21z m51 85c-8 0-17-4-25-8l-5-4c5-9 9-22 22-30 8-9 21-17 30-22l4 5c8 8 8 17 8 25s0 22-8 26c-4 8-17 8-26 8z m73 39c-17 17-43 30-68 30-26 0-51-9-69-30l-17-17 0 0-149-145c0 0 0 0 0 0-8-9-13-13-21-21-9-9-13-18-17-26l0 0 0 0c-5-13-5-22-9-30 0 0 0 0 0 0 0 0 0 0 0 0l-21-68c0 0 0 0 0 0 0 0 0 0 0 0-4-9-4-17 0-26 0-8 8-17 12-26 9-8 13-12 26-12 9 0 17 0 26 0 0 0 0 0 0 0l68 21c0 0 0 0 0 0 13 4 21 9 30 9l0 0c8 4 17 8 26 17 8 4 12 13 21 21 0 0 0 0 0 0l162 162c17 17 30 43 30 68s-13 52-30 73z m-209-256c-9-9-13-13-17-17l0 0c-5-4-9-9-13-9-4 0-8-4-21-8l0 0 0 0-39-13-4 4 13 39c4 13 4 17 8 21 5 4 5 8 9 13l0 0c4 4 4 8 17 17 0 0 0 0 0 0l111 111c4-9 13-17 21-30s17-17 30-21l-115-107z m162 158l0 0c-13 0-21 4-34 17-9 8-17 21-22 30l5 4c8 8 17 8 25 8 9 0 18-4 26-8 8-8 8-17 8-26s0-17-8-25z" horiz-adv-x="1024" />

<glyph glyph-name="id-reset" unicode="&#xe882;" d="M384 529c-29 0-53-24-53-53 0-29 24-53 53-53 29 0 53 24 53 53 0 29-24 53-53 53z m-117-53c0 65 52 117 117 117 65 0 117-52 117-117 0-65-52-117-117-117-65 0-117 52-117 117z m11-224c-28-14-33-27-33-32 0-26 2-30 8-34 6-4 16-9 38-13 21-4 51-6 93-6 42 0 72 2 93 6 22 4 32 9 38 13 6 4 8 8 8 34 0 5-5 18-33 32-25 13-63 21-106 21-43 0-81-8-106-21z m-29 57c36 18 84 28 135 28 51 0 99-10 135-28 34-17 68-47 68-89 0-1 0-2 0-3 0-21 0-58-35-83-16-12-37-19-64-24-26-5-60-7-104-7-44 0-78 2-104 7-27 5-48 12-64 24-35 25-35 62-35 83 0 1 0 2 0 3 0 42 34 72 68 89z m-5 342c-43-5-68-16-86-34l0 0 0 0c-18-18-29-43-35-86-6-44-6-102-6-183 0-81 0-139 6-183 6-43 17-68 35-86l0 0 0 0c18-18 43-29 86-34 44-6 101-6 183-6h170c82 0 139 0 183 6 43 5 68 16 86 34l0 0c18 18 29 43 35 86 6 44 6 102 6 183 0 18 14 32 32 32 17 0 32-14 32-32v-2c0-79 0-141-7-189-7-51-21-91-53-123-32-32-72-46-122-53-49-6-111-6-189-6h-176c-78 0-140 0-189 6-50 7-90 21-122 53-32 32-46 72-53 123-7 48-7 110-7 189v4c0 79 0 141 7 189 7 51 21 91 53 123 32 32 72 46 122 53 49 6 111 6 189 6l88 0c18 0 32-14 32-32 0-17-14-32-32-32h-85c-82 0-139 0-183-6z m660 156c17 0 32-15 32-32v-95c0-18-15-32-32-32l-91 0c-17 0-32 14-32 32 0 15 10 27 24 31-8 2-17 4-26 5-32 2-64-7-91-27-27-20-46-49-54-83-9-34-5-70 10-102 14-31 39-56 69-69 30-14 63-16 94-6 31 9 59 31 77 60 18 29 26 64 22 99-3 17 10 33 27 35 18 3 34-10 36-27 6-50-5-99-31-141-26-42-65-73-112-87-46-15-96-12-140 9-44 20-79 56-100 100-21 45-26 96-15 144 12 48 40 90 79 119 39 30 87 44 135 39 31-2 61-12 87-29v25c0 17 14 32 32 32z" horiz-adv-x="1024" />

<glyph glyph-name="dbl-start-fill" unicode="&#xe883;" d="M853 292c-123 0-226 103-226 227 0 17-13 34-34 34s-25-17-25-34c0-124-103-227-227-227-17 0-34-12-34-34s13-34 34-34c124 0 227-102 227-226 0-17 12-34 34-34s34 13 34 34c0 124 102 226 226 226 17 0 34 13 34 34s-26 34-43 34z m-469 256c17 0 34 13 34 35s-17 29-34 29c-43 0-72 35-72 77 0 17-13 35-35 35s-29-18-29-35c0-42-35-77-77-77-17 0-35-12-35-34s18-30 35-30c42 0 77-29 77-72 0-17 12-34 34-34s30 17 30 34c0 43 29 72 72 72z" horiz-adv-x="1024" />
</font>
</defs>
</svg>
